Правила форума

Здесь находятся раздачи, на которых не было полного источника (сида) более месяца.
Вы можете вернуть релиз в соответствующий раздел, для этого напишите нам в специальной теме и встаньте на раздачу.
Новые релизы, повторяющие релизы в архиве, повторами не считаются.
Начать новую темуОтветить на тему  [ Сообщений: 8 ] 
Сообщения
 Добавлено: 2012-05-13 22:01
Модератор
Аватара пользователя
Стаж: 8 лет 1 месяц
Сообщений: 1991
Спасибок: 129863
Лайков: 20
Женщина в черном / The Woman in Black


«Только не смотри на нее»



Изображение
Год выпуска: 2012
Страна: Изображение Швеция, Изображение Канада, Изображение Великобритания
Жанр: ужасы, триллер, драма
Продолжительность:
01:35:19

Перевод: Любительский (одноголосый) Сергей Фурман /Чистый звук/

Режиссер: Джеймс Уоткинс
Сценарий: Джейн Голдман, Сьюзен Хилл
Продюсер: Ричард Джексон, Саймон Оукс, Брайан Оливер, Вик Дэвид, Найджел Синклер
Оператор: Тим Морис-Джонс
Композитор: Марко Белтрами

В ролях:
Дэниэл Рэдклифф (Arthur Kipps), Кирен Хайдз (Daily), Джанет МакТир (Mrs. Daily), Дэвид Бурк (PC Collins), Шон Дули (Fisher), Эмма Шори (Fisher Girl), Молли Хэрмон (Fisher Girl), Софи Стаки (Stella Kipps), Миша Хэндли (Joseph Kipps), Джессика Рэйне (Nanny), Роджер Аллам (Mr. Bentley), Люси Мэй Баркер (Nursemaid)
Дублёры: Николай Быстров (Arthur Kipps) (Arthur Kipps), Тимофей Спивак (Daily) (Daily), Любовь Германова (Mrs. Daily) (Mrs. Daily), Анастасия Нестеренко (Nanny) (Nanny)

Описание: На дворе - конец девятнадцатого века, но, хотя люди пользуются автомобилями, железными дорогами и телеграфом, человек по-прежнему бессилен перед проявлениями сверхъестественного. Молодой лондонский юрист Артур Киппс вынужден оставить своего 4-летнего сына и отправиться в командировку в уединенную северную деревушку, чтобы составить реестр документов, оставшихся от скончавшегося хозяина поместья Ил Марш. Добравшись до места и пообщавшись с негостеприимными местными жителями, он начинает понимать, что над деревушкой нависла тень мрачной тайны. Когда же рядом со старым кладбищем ему на глаза попадается загадочная женщина, одетая в черное, это малозначительное происшествие знаменует начало череды леденящих кровь смертей в семьях обитателей деревни.


Изображение: 6.667 (8 860)
Изображение: 6.70 (31 061)

MPAA: Изображение - Детям до 13 лет просмотр не желателен

Доп. Информация
Бюджет: $17 000 000
Сборы в США: $54 333 290
Сборы в России: $4 940 902
Сборы в мире: $126 143 243
Мировая премьера: 3 февраля 2012

Свернуть

Релиз группы: Изображение
Качество: BDRip 1080p R5

Формат: Matroska
Видео: AVC; 1920x816 (2.35:1); 12500 Kbps; 23,976 fps; 0,333 bpp
Аудио №1: Russian; AC3; 448 Kbps; CBR; 6 ch; 16 bit
Аудио №2: English; DTS; 1509 Kbps; CBR; 6 ch; 24 bit
Субтитры №1: Russian
Субтитры №2: Russian
Субтитры №3: English
Изображение


Знаете ли Вы, что...
  • Фильм основан на одноимённом романе британской писательницы Сюзан Хилл, впервые опубликованном в октябре 1983 года.
  • В 1987 году по книге Сюзан Хилл была поставлена пьеса, дебютировавшая в театре Стивена Джозефа в городе Сканторп. Два года спустя пьеса переехала в Вест-Энд, где и продолжает идти до настоящего времени.
  • Первоначально продюсеры фильма рассматривали возможность создания его в 3D, но в последующем от этой идеи было решено отказаться.
  • Мальчик, играющий сына героя Дэниэла Рэдклиффа в фильме, на самом деле является крёстным сыном молодого актера. Это предложение в процессе кастинга сделал сам Дэниэл Рэдклифф.
  • Музыкальные шкатулки и механические игрушки в сцене в детской были реальными антикварными предметами того периода, позаимствованными на время съёмок у коллекционера.
  • Машина персонажа Кирена Хайдза это Rolls-Royce Silver Ghost. Этот уникальный автомобиль считается самым дорогим в мире со страховой стоимостью 35 миллионов долларов в 2005 году. На момент съёмок стоимость произведённого в 1907 году автомобиля оценивалась в 57 миллионов долларов.
  • Эдриан Роулинз, актёр, сыгравший отца Гарри Поттера, был главным героем фильма «Женщина в черном» 1989-го года.
Свернуть
BDInfo
Общее
Уникальный идентификатор : 233051908853497770680801724818569599846 (0xAF542A3C81A8A8D993EE2E8562549B66)
Полное имя : D:\The Woman in Black.2012.BDRip.1080p.mkv
Формат : Matroska
Версия формата : Version 2
Размер файла : 9,63 Гбайт
Продолжительность : 1 ч. 35 м.
Общий поток : 14,5 Мбит/сек
Дата кодирования : UTC 2012-05-08 04:43:32
Программа кодирования : mkvmerge v5.0.1 ('Es ist Sommer') built on Nov 6 2011 16:23:40
Библиотека кодирования : libebml v1.2.2 + libmatroska v1.3.0
Видео
Идентификатор : 1
Формат : AVC
Формат/Информация : Advanced Video Codec
Профиль формата : High@L4.1
Параметр CABAC формата : Да
Параметр ReFrames формата : 4 кадра
Идентификатор кодека : V_MPEG4/ISO/AVC
Продолжительность : 1 ч. 35 м.
Битрейт : 12,5 Мбит/сек
Ширина : 1920 пикселей
Высота : 816 пикселей
Соотношение сторон : 2,35:1
Частота кадров : 23,976 кадра/сек
Цветовое пространство : YUV
Субдискретизация насыщенности : 4:2:0
Битовая глубина : 8 бит
Тип развёртки : Прогрессивная
Бит/(Пиксели*Кадры) : 0.333
Размер потока : 8,13 Гбайт (84%)
Библиотека кодирования : x264 core 120 r2120 0c7dab9
Настройки программы : cabac=1 / ref=4 / deblock=1:-6:-3 / analyse=0x3:0x113 / me=umh / subme=11 / psy=1 / psy_rd=1.00:0.00 / mixed_ref=1 / me_range=16 / chroma_me=1 / trellis=2 / 8x8dct=1 / cqm=0 / deadzone=21,11 / fast_pskip=1 / chroma_qp_offset=-2 / threads=12 / sliced_threads=0 / nr=2 / decimate=1 / interlaced=0 / bluray_compat=0 / constrained_intra=0 / bframes=12 / b_pyramid=0 / b_adapt=1 / b_bias=0 / direct=1 / weightb=1 / open_gop=0 / weightp=2 / keyint=250 / keyint_min=23 / scenecut=40 / intra_refresh=0 / rc_lookahead=40 / rc=2pass / mbtree=1 / bitrate=12500 / ratetol=1.0 / qcomp=0.60 / qpmin=0 / qpmax=35 / qpstep=4 / cplxblur=20.0 / qblur=0.5 / ip_ratio=3.00 / aq=1:1.00
Язык : English
Default : Нет
Forced : Нет
Аудио #1
Идентификатор : 2
Формат : AC-3
Формат/Информация : Audio Coding 3
Расширение режима : CM (complete main)
Параметр Endianness формата : Big
Идентификатор кодека : A_AC3
Продолжительность : 1 ч. 35 м.
Вид битрейта : Постоянный
Битрейт : 448 Кбит/сек
Каналы : 6 каналов
Расположение каналов : Front: L C R, Side: L R, LFE
Частота : 48,0 КГц
Битовая глубина : 16 бит
Метод сжатия : С потерями
Размер потока : 305 Мбайт (3%)
Заголовок : VO
Язык : Russian
Default : Да
Forced : Да
Аудио #2
Идентификатор : 3
Формат : DTS
Формат/Информация : Digital Theater Systems
Идентификатор кодека : A_DTS
Продолжительность : 1 ч. 35 м.
Вид битрейта : Постоянный
Битрейт : 1510 Кбит/сек
Каналы : 6 каналов
Расположение каналов : Front: L C R, Side: L R, LFE
Частота : 48,0 КГц
Битовая глубина : 24 бит
Метод сжатия : С потерями
Размер потока : 1,01 Гбайт (10%)
Заголовок : ENG
Язык : English
Default : Нет
Forced : Нет
Текст #1
Идентификатор : 4
Формат : UTF-8
Идентификатор кодека : S_TEXT/UTF8
Идентификатор кодека/Информация : UTF-8 Plain Text
Заголовок : RUS.v1
Язык : Russian
Default : Нет
Forced : Нет
Текст #2
Идентификатор : 5
Формат : UTF-8
Идентификатор кодека : S_TEXT/UTF8
Идентификатор кодека/Информация : UTF-8 Plain Text
Заголовок : RUS.v2
Язык : Russian
Default : Нет
Forced : Нет
Текст #3
Идентификатор : 6
Формат : UTF-8
Идентификатор кодека : S_TEXT/UTF8
Идентификатор кодека/Информация : UTF-8 Plain Text
Заголовок : ENG
Язык : English
Default : Нет
Forced : Нет
Свернуть
Скриншоты
Изображение
Изображение
Изображение
Изображение
Свернуть

_________________
Себе ты можешь не качать, но раздавать другим обязан!
Не в сети
Профиль  
 Добавлено: 2012-05-13 23:16 (спустя 1 час 15 минут)
Модератор
Аватара пользователя
Стаж: 6 лет 10 месяцев
Возраст: 33
Сообщений: 5908
Спасибок: 61255
Лайков: 3540
Сэмпл пустой.


Изображение - этот наверное верный.
_________________
ИзображениеИзображение Изображение
Изображение
Не в сети
Профиль  
 Добавлено: 2012-05-14 08:09 (спустя 8 часов)
Инквизитор
Аватара пользователя
Стаж: 8 лет 8 месяцев
Сообщений: 3753
Спасибок: 28360
Лайков: 9
Временное лепиться теперь? :sh_ok:
Не в сети
Профиль  
 Добавлено: 2012-05-14 14:17 (спустя 6 часов)
Стаж: 5 лет 10 месяцев
Сообщений: 280
Лайков: 8
а когда с полным переводом будет?))
Не в сети
Профиль  
 Добавлено: 2012-05-14 17:11 (спустя 2 часа 54 минуты)
Аватара пользователя
Стаж: 7 лет 7 месяцев
Сообщений: 25
как фильм ?
Не в сети
Профиль  
 Добавлено: 2012-05-15 15:15 (спустя 22 часа)
Кинокомментатор
Аватара пользователя
Стаж: 9 лет 1 месяц
Сообщений: 1332
Лайков: 54
фу перевод... скачал в пустую(( надо всё ж таки читать)
_________________
Я ВКонтакте
Не в сети
Профиль  
 Добавлено: 2012-06-11 08:31 (спустя 26 дней)
Аватара пользователя
Стаж: 9 лет
Сообщений: 116
Спасибок: 2419
Лайков: 1
Даешь ДУБЛЯЖ!
Не в сети
Профиль  
 Добавлено: 2012-06-28 01:38 (спустя 16 дней)
Руководитель релиз-группы
Аватара пользователя
Стаж: 7 лет 4 месяца
Возраст: 31
Сообщений: 3407
Спасибок: 46729
Лайков: 5
viewtopic.php?f=1750&t=472322
Не в сети
Профиль  
Начать новую темуОтветить на тему  [ Сообщений: 8 ] 
Вы не можете начинать темы
Вы не можете отвечать на сообщения
Вы не можете редактировать свои сообщения
Вы не можете удалять свои сообщения