Правила форума

Здесь находятся раздачи, на которых не было полного источника (сида) более месяца.
Вы можете вернуть релиз в соответствующий раздел, для этого напишите нам в специальной теме и встаньте на раздачу.
Новые релизы, повторяющие релизы в архиве, повторами не считаются.
Начать новую темуОтветить на тему  [ Сообщений: 2 ] 
Сообщения
 Добавлено: 2011-10-12 21:55
Книголюб
Аватара пользователя
Стаж: 7 лет 2 месяца
Сообщений: 2823
Спасибок: 48823
Лайков: 73
Жестокий вид
The Violent Kind
Изображение


Год выпуска: 2010
Страна: США (San Francisco Independent Cinema)
Жанр: ужасы
Продолжительность: 01:28:45
Перевод: Любительский (одноголосый закадровый) + Любительский (двухголосый закадровый)

Режиссёр: Митчел Алтери, Фил Флорес
В ролях: Кори Кнауф, Тейлор Коул, Брэт Робертс, Кристина П. Грэйс, Тиффани Шепис, Джозеф МакКелхир, Сэмюэл Чайлд, Маккензи Фиргенз
Описание: Группа крутых байкеров и их подружек глубокой ночью оказываются возле дома, расположенного в лесной глуши. И все они становятся жертвами одной из девушек, в которую вселяется жестокий дух того, кто раньше, в 50-х годах прошлого столетия, состоял в банде «Рокобилли».
Рейтинг MPAA: Рейтинг R (Подростки до 17 лет допускаются на фильм только в сопровождении одного из родителей)
Мировая премьера: 25 января 2010
Изображение 5.111 50

Качество: BDRip 720p
Формат: MKV
Видео кодек: H264
Аудио кодек: AC3 (Dolby Digital)
Видео: 1280x720 23.98fps, 5 530 Kbps, 0.250Bits/Pixel
Аудио #1: Russian: AC-3, 48000Hz 6ch
Аудио #2: English: AC-3, 48000Hz 2ch

MediaInfo
General
Unique ID : 177212975087744712399329737560574045142 (0x8551FA3F1D311ABEAE592BB608FAABD6)
Complete name : I:\Gestokij.vid.2010.x264.BDRip.(720p).mkv
Format : Matroska
File size : 3.79 GiB
Duration : 1h 28mn
Overall bit rate : 6 108 Kbps
Movie name : Жестокий вид / The Violent Kind (2010) BDRip-AVC от FireBit
Encoded date : UTC 2011-06-17 01:33:31
Writing application : mkvmerge v2.3.0 ('Freak U') built on Sep 8 2008 18:32:16
Writing library : libebml v0.7.7 + libmatroska v0.8.1

Video
ID : 1
Format : AVC
Format/Info : Advanced Video Codec
Format profile : High@L4.1
Format settings, CABAC : Yes
Format settings, ReFrames : 9 frames
Format settings, GOP : M=5, N=24
Codec ID : V_MPEG4/ISO/AVC
Duration : 1h 28mn
Bit rate : 5 530 Kbps
Width : 1 280 pixels
Height : 720 pixels
Display aspect ratio : 16:9
Frame rate : 23.976 fps
Color space : YUV
Chroma subsampling : 4:2:0
Bit depth : 8 bits
Scan type : Progressive
Bits/(Pixel*Frame) : 0.250
Stream size : 3.35 GiB (89%)
Title : http://firebit.org
Writing library : x264 core 115 r1947+532 361db68
Encoding settings : cabac=1 / ref=9 / deblock=1:-3:-3 / analyse=0x3:0x113 / me=umh / subme=9 / psy=1 / fade_compensate=0.00 / psy_rd=1.05:0.10 / mixed_ref=1 / me_range=32 / chroma_me=1 / trellis=2 / 8x8dct=1 / cqm=2 / deadzone=21,11 / fast_pskip=0 / chroma_qp_offset=-2 / threads=12 / sliced_threads=0 / nr=0 / decimate=1 / interlaced=0 / bluray_compat=0 / constrained_intra=0 / fgo=0 / bframes=6 / b_pyramid=2 / b_adapt=2 / b_bias=0 / direct=3 / weightb=1 / open_gop=0 / weightp=2 / keyint=250 / keyint_min=23 / scenecut=40 / intra_refresh=0 / rc_lookahead=60 / rc=2pass / mbtree=1 / bitrate=5530 / ratetol=1.0 / qcomp=0.60 / qpmin=1 / qpmax=63 / qpstep=4 / cplxblur=20.0 / qblur=0.5 / vbv_maxrate=40000 / vbv_bufsize=30000 / nal_hrd=none / ip_ratio=1.40 / aq=1:0.70
Language : English

Audio #1
ID : 2
Format : AC-3
Format/Info : Audio Coding 3
Mode extension : CM (complete main)
Codec ID : A_AC3
Duration : 1h 28mn
Bit rate mode : Constant
Bit rate : 448 Kbps
Channel(s) : 6 channels
Channel positions : Front: L C R, Side: L R, LFE
Sampling rate : 48.0 KHz
Bit depth : 16 bits
Compression mode : Lossy
Stream size : 284 MiB (7%)
Title : http://firebit.org
Language : Russian

Audio #2
ID : 3
Format : AC-3
Format/Info : Audio Coding 3
Mode extension : CM (complete main)
Codec ID : A_AC3
Duration : 1h 28mn
Bit rate mode : Constant
Bit rate : 128 Kbps
Channel(s) : 2 channels
Channel positions : Front: L R
Sampling rate : 48.0 KHz
Bit depth : 16 bits
Compression mode : Lossy
Stream size : 81.3 MiB (2%)
Title : http://firebit.org
Language : English

Text #1
ID : 4
Format : UTF-8
Codec ID : S_TEXT/UTF8
Codec ID/Info : UTF-8 Plain Text
Title : http://firebit.org
Language : English

Text #2
ID : 5
Format : UTF-8
Codec ID : S_TEXT/UTF8
Codec ID/Info : UTF-8 Plain Text
Title : http://firebit.org
Language : English

Text #3
ID : 6
Format : UTF-8
Codec ID : S_TEXT/UTF8
Codec ID/Info : UTF-8 Plain Text
Title : http://firebit.org
Language : English


Свернуть

Скриншоты
Изображение
Изображение
Изображение
Изображение
Свернуть
Не в сети
Профиль  
 Добавлено: 2011-10-13 06:09 (спустя 8 часов)
Аватара пользователя
Стаж: 7 лет 2 месяца
Сообщений: 7167
Спасибок: 81984
Лайков: 2438
Жесть... :ti_pa:

Пассажир на постере похож на солиста Depeche Mode - Дэйва Гаана :sh_ok: :co_ol:
Не в сети
Профиль  
Начать новую темуОтветить на тему  [ Сообщений: 2 ] 
Вы не можете начинать темы
Вы не можете отвечать на сообщения
Вы не можете редактировать свои сообщения
Вы не можете удалять свои сообщения