Правила форума

Здесь находятся раздачи, на которых не было полного источника (сида) более месяца.
Вы можете вернуть релиз в соответствующий раздел, для этого напишите нам в специальной теме и встаньте на раздачу.
Новые релизы, повторяющие релизы в архиве, повторами не считаются.
Начать новую темуОтветить на тему  [ Сообщений: 10 ] 
Сообщения
 Добавлено: 2012-01-06 12:57
Top-releaser
Аватара пользователя
Стаж: 8 лет 9 месяцев
Сообщений: 479
Спасибок: 20190
Лайков: 16
Изображение

Живая сталь

Real Steel


«Чемпионами не рождаются, их собирают»


Год выпуска: 2011
Страна: Изображение США, Изображение Индия; 21 Laps Entertainment, Angry Films, DreamWorks SKG, ImageMovers
Жанр: Фантастика, боевик, семейный
Продолжительность: 02:06:51
Перевод: Профессиональный (дублированный) [TS], Любительский (одноголосый) [den904], Оригинал
Субтитры: Русские

Режиссёр: Шон Леви / Shawn Levy

В ролях: Хью Джекман, Дакота Гойо, Эванджелин Лилли, Энтони Маки, Кевин Дюран, Хоуп Дэвис, Джеймс Ребхорн, Марко Руджери, Карл Йун, Ольга Фонда

Описание: События фильма происходят в будущем, где бокс запрещен за негуманностью и заменен боями 2000-фунтовых роботов, управляемых людьми. Бывший боксер, а теперь промоутер, переметнувшийся в Робобокс, решает, что наконец нашел своего чемпиона, когда ему попадается выбракованный, но очень способный робот. Одновременно на жизненном пути героя возникает 11-летний пацан, оказывающийся его сыном. И по мере того, как машина пробивает свой путь к вершине, обретшие друг друга отец и сын учатся дружить.


Качество: BDRip 1080p
Формат: MKV

Видео: AVC, 1920 x 816 (2.353) at 23.976 fps, 12,1 Мбит/сек

Аудио 1: DTS at 1510 Кбит/сек, 6 канала(ов), 48,0 КГц [den904]
Аудио 2: AC-3 at 192 Кбит/сек, 2 канала(ов), 48,0 КГц [Дубляж с TS]
Аудио 3: DTS at 1510 Кбит/сек, 6 канала(ов), 48,0 КГц [Оригинал]
Раздача: Изображение

Изображение
MediaInfo

Общее
Уникальный идентификатор : 239483462112927776966490499199809639850 (0xB42AD64B536B64D5AC948FCDDE9C55AA)
Полное имя : C:\Users\Домашний\Desktop\Zhivaja Stal.2011.BDRip.1080p[nntt].mkv
Формат : Matroska
Размер файла : 13,6 Гбайт
Продолжительность : 2 ч. 6 м.
Общий поток : 15,3 Мбит/сек
Название фильма : Rip by - Seksi03 - X-TORRENTS
Дата кодирования : UTC 2012-01-05 06:15:49
Программа кодирования : mkvmerge v5.1.0 ('And so it goes') built on Nov 28 2011 23:58:28
Библиотека кодирования : libebml v1.2.3 + libmatroska v1.3.0

Видео
Идентификатор : 1
Формат : AVC
Формат/Информация : Advanced Video Codec
Профиль формата : High@L4.1
Параметр CABAC формата : Да
Параметр ReFrames формата : 5 кадры
Идентификатор кодека : V_MPEG4/ISO/AVC
Продолжительность : 2 ч. 6 м.
Битрейт : 12,1 Мбит/сек
Ширина : 1920 пикс.
Высота : 816 пикс.
Соотношение сторон : 2,35:1
Частота кадров : 23,976 кадр/сек
Цветовое пространство : YUV
Подвыборка цветности : 4:2:0
Битовая глубина : 8 бит
Тип развёртки : Прогрессивная
Бит/(Пиксели*Кадры) : 0.322
Размер потока : 10,5 Гбайт (77%)
Заголовок : Rip by - Seksi03 - X-TORRENTS
Библиотека кодирования : x264 core 116 r2074 2641b9e
Настройки программы : cabac=1 / ref=5 / deblock=1:-3:-3 / analyse=0x3:0x133 / me=umh / subme=11 / psy=1 / psy_rd=1.05:0.00 / mixed_ref=1 / me_range=48 / chroma_me=1 / trellis=2 / 8x8dct=1 / cqm=0 / deadzone=21,11 / fast_pskip=0 / chroma_qp_offset=-2 / threads=12 / sliced_threads=0 / nr=0 / decimate=0 / interlaced=0 / bluray_compat=0 / constrained_intra=0 / bframes=8 / b_pyramid=2 / b_adapt=2 / b_bias=0 / direct=3 / weightb=1 / open_gop=0 / weightp=2 / keyint=240 / keyint_min=24 / scenecut=40 / intra_refresh=0 / rc_lookahead=240 / rc=2pass / mbtree=1 / bitrate=12111 / ratetol=1.0 / qcomp=0.70 / qpmin=0 / qpmax=69 / qpstep=4 / cplxblur=20.0 / qblur=0.5 / ip_ratio=1.40 / aq=1:1.15
Язык : English

Аудио #1
Идентификатор : 2
Формат : DTS
Формат/Информация : Digital Theater Systems
Идентификатор кодека : A_DTS
Продолжительность : 2 ч. 6 м.
Вид битрейта : Постоянный
Битрейт : 1510 Кбит/сек
Канал(ы) : 6 канала(ов)
Расположение каналов : Front: L C R, Side: L R, LFE
Частота : 48,0 КГц
Битовая глубина : 24 бит
Метод сжатия : С потерями
Размер потока : 1,34 Гбайт (10%)
Заголовок : den904
Язык : Russian

Аудио #2
Идентификатор : 3
Формат : AC-3
Формат/Информация : Audio Coding 3
Расширение режима : CM (complete main)
Идентификатор кодека : A_AC3
Продолжительность : 2 ч. 6 м.
Вид битрейта : Постоянный
Битрейт : 192 Кбит/сек
Канал(ы) : 2 канала(ов)
Расположение каналов : Front: L R
Частота : 48,0 КГц
Битовая глубина : 16 бит
Метод сжатия : С потерями
Размер потока : 174 Мбайт (1%)
Заголовок : Дубляж
Язык : Russian

Аудио #3
Идентификатор : 4
Формат : DTS
Формат/Информация : Digital Theater Systems
Идентификатор кодека : A_DTS
Продолжительность : 2 ч. 6 м.
Вид битрейта : Постоянный
Битрейт : 1510 Кбит/сек
Канал(ы) : 6 канала(ов)
Расположение каналов : Front: L C R, Side: L R, LFE
Частота : 48,0 КГц
Битовая глубина : 24 бит
Метод сжатия : С потерями
Размер потока : 1,34 Гбайт (10%)
Язык : English

Текст
Идентификатор : 5
Формат : UTF-8
Идентификатор кодека : S_TEXT/UTF8
Идентификатор кодека/Информация : UTF-8 Plain Text
Заголовок : Rip by - Seksi03 - X-TORRENTS
Язык : Russian


Свернуть
Скриншоты

Изображение
Изображение
Изображение
Изображение
Изображение
Свернуть
_________________
Изображение
Изображение
Не в сети
Профиль  
 Добавлено: 2012-01-06 13:18 (спустя 20 минут)
Стаж: 8 лет 9 месяцев
Сообщений: 29
Неужели кто то смотрит BDRIP с таким звуком? :sh_ok:
Не в сети
Профиль  
 Добавлено: 2012-01-06 13:26 (спустя 8 минут)
Кинокомментатор
Аватара пользователя
Стаж: 8 лет 8 месяцев
Возраст: 32
Сообщений: 5126
Спасибок: 194
Лайков: 35

belochka:

Неужели кто то смотрит BDRIP с таким звуком? :sh_ok:
Кто то смотрит BDRip в оригинале :a_g_a:
_________________
Изображение
Изображение Кино-кафе или что посмотреть сегодня вечером. Советы кинокомментатора О_о ИзображениеИзображение
Не в сети
Профиль  
 Добавлено: 2012-01-06 23:22 (спустя 9 часов)
Аватара пользователя
Стаж: 9 лет
Сообщений: 167
Спасибок: 38
давай полный блю рей
Не в сети
Профиль  
 Добавлено: 2012-01-07 17:33 (спустя 18 часов)
Стаж: 5 лет
Сообщений: 59
спасибо
Не в сети
Профиль  
 Добавлено: 2012-01-07 18:34 (спустя 1 час 1 минута)
Аватара пользователя
Стаж: 7 лет 11 месяцев
Сообщений: 786
Спасибок: 25
Лайков: 9
:men: Спасибо ....
Не в сети
Профиль  
 Добавлено: 2012-01-07 22:20 (спустя 3 часа)
Аватара пользователя
Стаж: 9 лет
Сообщений: 545
Спасибок: 339
полный блю рей 3д будет?
_________________
Smack - Вместе нам не быть (Mixtape vol. 3) [2013]
Smack - Нарисую (Mixtape vol. 2) [2011]
Не в сети
Профиль  
 Добавлено: 2012-01-08 09:55 (спустя 11 часов)
Аватара пользователя
Стаж: 9 лет
Сообщений: 167
Спасибок: 38
дай полный
Не в сети
Профиль  
 Добавлено: 2012-01-08 22:20 (спустя 12 часов)
Аватара пользователя
Стаж: 9 лет 1 месяц
Сообщений: 687
Спасибок: 2543
Лайков: 17

belochka:

Неужели кто то смотрит BDRIP с таким звуком? :sh_ok:
ну на современных тв обычно стоят динамички 2х2вт, в них любой звук как с camripa)
Не в сети
Профиль  
 Добавлено: 2012-01-31 18:04 (спустя 22 дня)
Аватара пользователя
Стаж: 8 лет 3 месяца
Возраст: 43
Сообщений: 3290
Спасибок: 21012
Лайков: 3
viewtopic.php?f=1750&t=447537
_________________
Изображение
Не в сети
Профиль  
Начать новую темуОтветить на тему  [ Сообщений: 10 ] 
Вы не можете начинать темы
Вы не можете отвечать на сообщения
Вы не можете редактировать свои сообщения
Вы не можете удалять свои сообщения