Правила форума

Здесь находятся раздачи, на которых не было полного источника (сида) более месяца.
Вы можете вернуть релиз в соответствующий раздел, для этого напишите нам в специальной теме и встаньте на раздачу.
Новые релизы, повторяющие релизы в архиве, повторами не считаются.
Начать новую темуОтветить на тему  [ Сообщений: 4 ] 
Сообщения
 Добавлено: 2012-01-05 10:57
Top-seeder
Аватара пользователя
Стаж: 9 лет
Сообщений: 1399
Спасибок: 28653
Лайков: 8
Изображение


Информация о фильме:
Название: Живая сталь
Оригинальное название: Real Steel
Год выхода: 2011
Жанр: фантастика, боевик, семейный
Режиссер: Шон Леви
В ролях: Хью Джекман, Дакота Гойо, Эванджелин Лилли, Энтони Маки, Кевин Дюран, Хоуп Дэвис, Джеймс Ребхорн, Марко Руджери, Карл Йун, Ольга Фонда

О фильме:
События фильма происходят в будущем, где бокс запрещен за негуманностью и заменен боями 2000-фунтовых роботов, управляемых людьми. Бывший боксер, а теперь промоутер, переметнувшийся в Робобокс, решает, что наконец нашел своего чемпиона, когда ему попадается выбракованный, но очень способный робот. Одновременно на жизненном пути героя возникает 11-летний пацан, оказывающийся его сыном. И по мере того, как машина пробивает свой путь к вершине, обретшие друг друга отец и сын учатся дружить.

Выпущено: США, Индия / 21 Laps Entertainment, Angry Films, DreamWorks SKG, ImageMovers
Продолжительность: 02:06:50
Озвучивание: Дублированное [звук с TS]

Файл:
Формат: MKV
Качество: BDRip 720p [HDChina]
Видео: 5222 kb/s, 1280x544
Аудио: Russian: AC3, 192 kb/s (2 ch) / English: DTS, 1510 kb/s (6 ch)
Субтитры: English

MI
Общее
Уникальный идентификатор : 180635949337288430730759635354806006014 (0x87E537E8279BEAE8A8739CEBA5F230FE)
Полное имя : D:\Закачки\Живая сталь Real Steel (2011) BDRip 720p.mkv
Формат : Matroska
Размер файла : 6,14 Гбайт
Продолжительность : 2 ч. 6 м.
Общий поток : 6926 Кбит/сек
Название фильма : UNIONGANG.TV -TVB-
Дата кодирования : UTC 2012-01-04 18:16:44
Программа кодирования : mkvmerge v5.2.1 ('A Far Off Place') built on Jan 2 2012 23:21:10
Библиотека кодирования : libebml v1.2.3 + libmatroska v1.3.0

Видео
Идентификатор : 1
Формат : AVC
Формат/Информация : Advanced Video Codec
Профиль формата : High@L4.1
Параметр CABAC формата : Да
Параметр ReFrames формата : 12 кадров
Идентификатор кодека : V_MPEG4/ISO/AVC
Продолжительность : 2 ч. 6 м.
Битрейт : 5222 Кбит/сек
Ширина : 1280 пикс.
Высота : 544 пикс.
Соотношение сторон : 2,35:1
Частота кадров : 23,976 кадр/сек
Цветовое пространство : YUV
Подвыборка цветности : 4:2:0
Битовая глубина : 8 бит
Тип развёртки : Прогрессивная
Бит/(Пиксели*Кадры) : 0.313
Размер потока : 4,51 Гбайт (73%)
Заголовок : HDChina
Библиотека кодирования : x264 core 118 r2085 8a62835
Настройки программы : cabac=1 / ref=12 / deblock=1:-3:-3 / analyse=0x3:0x133 / me=umh / subme=11 / psy=1 / psy_rd=0.95:0.02 / mixed_ref=1 / me_range=32 / chroma_me=1 / trellis=2 / 8x8dct=1 / cqm=0 / deadzone=21,11 / fast_pskip=0 / chroma_qp_offset=-3 / threads=12 / sliced_threads=0 / nr=0 / decimate=0 / interlaced=0 / bluray_compat=0 / constrained_intra=0 / bframes=8 / b_pyramid=2 / b_adapt=2 / b_bias=0 / direct=3 / weightb=1 / open_gop=0 / weightp=2 / keyint=240 / keyint_min=24 / scenecut=40 / intra_refresh=0 / rc_lookahead=240 / rc=2pass / mbtree=1 / bitrate=5222 / ratetol=1.0 / qcomp=0.70 / qpmin=0 / qpmax=69 / qpstep=4 / cplxblur=20.0 / qblur=0.5 / vbv_maxrate=38000 / vbv_bufsize=30000 / nal_hrd=none / ip_ratio=1.40 / aq=2:1.20
Язык : English

Аудио #1
Идентификатор : 2
Формат : AC-3
Формат/Информация : Audio Coding 3
Расширение режима : CM (complete main)
Идентификатор кодека : A_AC3
Продолжительность : 2 ч. 6 м.
Вид битрейта : Постоянный
Битрейт : 192 Кбит/сек
Каналы : 2 канала
Расположение каналов : Front: L R
Частота : 48,0 КГц
Битовая глубина : 16 бит
Метод сжатия : С потерями
Задержка видео : 100 мс.
Размер потока : 174 Мбайт (3%)
Заголовок : Dub ts
Язык : Russian

Аудио #2
Идентификатор : 3
Формат : DTS
Формат/Информация : Digital Theater Systems
Идентификатор кодека : A_DTS
Продолжительность : 2 ч. 6 м.
Вид битрейта : Постоянный
Битрейт : 1510 Кбит/сек
Каналы : 6 каналов
Расположение каналов : Front: L C R, Side: L R, LFE
Частота : 48,0 КГц
Битовая глубина : 24 бит
Метод сжатия : С потерями
Размер потока : 1,34 Гбайт (22%)
Язык : English

Текст
Идентификатор : 4
Формат : UTF-8
Идентификатор кодека : S_TEXT/UTF8
Идентификатор кодека/Информация : UTF-8 Plain Text
Язык : English

Свернуть

Скриншоты
ИзображениеИзображениеИзображениеИзображение
Свернуть

Дополнительная информация: Качество видео очень хорошее,звук тоже неплохой, несмотря на качество TS.
Не в сети
Профиль  
 Добавлено: 2012-01-07 10:47 (спустя 1 день 23 часа)
Top-releaser
Аватара пользователя
Стаж: 6 лет 7 месяцев
Сообщений: 2078
Спасибок: 3230
Лайков: 9

Лукавый:

В раздаче другой фильм, релизера в бан и накол!
тебя самого в бан.
Фильм отличный, звук достаточно хороший для TS.

Paladan спасибо :)
Не в сети
Профиль  
 Добавлено: 2012-01-11 08:00 (спустя 3 дня)
Стаж: 5 лет 8 месяцев
Сообщений: 8
Да звук хороший а главно фильм отличный :ya_hoo_oo:
Не в сети
Профиль  
 Добавлено: 2012-01-31 18:03 (спустя 20 дней)
Аватара пользователя
Стаж: 8 лет 3 месяца
Возраст: 43
Сообщений: 3290
Спасибок: 21012
Лайков: 3
viewtopic.php?f=1750&t=447537
_________________
Изображение
Не в сети
Профиль  
Начать новую темуОтветить на тему  [ Сообщений: 4 ] 
Вы не можете начинать темы
Вы не можете отвечать на сообщения
Вы не можете редактировать свои сообщения
Вы не можете удалять свои сообщения