Правила форума

Здесь находятся раздачи, на которых не было полного источника (сида) более месяца.
Вы можете вернуть релиз в соответствующий раздел, для этого напишите нам в специальной теме и встаньте на раздачу.
Новые релизы, повторяющие релизы в архиве, повторами не считаются.
Начать новую темуОтветить на тему  [ 1 сообщение ] 
Сообщения
 Добавлено: 2011-03-29 18:38
Модератор
Аватара пользователя
Стаж: 8 лет 1 месяц
Возраст: 20
Сообщений: 32130
Спасибок: 98568
Лайков: 80
Жизнь, как она есть / Life as We Know It
«Семья - инструкция по эксплуатации»

Изображение
Год выпуска: 2010
Страна: Изображение США
Жанр: драма, комедия
Продолжительность: 01:50:33
Перевод: Профессиональный (полное дублирование) [лицензия]

Режиссер: Грег Берланти / Greg Berlanti
Сценарий: Йен Дейчман / Ian Deitchman, Кристин Раск Робинсон / Kristin Rusk Robinson
Продюсер: Пол Брукс / Paul Brooks, Норм Уэйт / Norm Waitt, Александр Ф. Янг / Alexander F. Young, Денис Ди Нови / Denise Di Novi, Алисия Джелернт / Alicia Gelernt
Оператор: Эндрю Данн / Andrew Dunn
Композитор: Блейк Нили / Blake Neely

В ролях: Кэтрин Хайгл (Holly Berenson,), Джош Дюамель (Eric Messer), Джош Лукас (Sam), Алексис Кладжетт (Sophie), Бринн Кладжетт (Sophie), Брук Клагетт (Sophie), Хэйес МакАртур (Peter Novak), Кристина Хендрикс (Alison Novack), Сара Барнс (Janine Groff), Джессика Ст. Клэр (Beth), Брук Лиделл (Older Sophie), Кили Лиделл (Older Sophie)
Дублёры: Татьяна Шитова (Holly Berenson), Александр Гаврилин (Eric Messer), Валерий Сторожик (Sam), Алексей Мясников (Peter Novak), Рамиля Искандер (Alison Novack), Ольга Зверева (Janine Groff), Даша Петрова (Amy), Александр Коврижных (Ted), Юлия Черкасова (DeeDee), Александр Носков (Lonnie), Диомид Виноградов (Simon), Андрей Казанцев (Scott)
Описание: Холли Беренсон - набирающий обороты поставщик продуктов питания, Эрик Мессер - многообещающий директор спортивной сети. После рокового первого свидания единственное, что у них теперь общее, - это ненависть друг к другу и любовь к крестнице Софи. Но когда внезапно они становятся единственными, кто остается у Софи, Холли и Мессер вынуждены забыть о собственных несовпадениях. В попытке состыковать карьерные амбиции и несхожие планы досуга им всё-таки придется найти хоть что-то их объединяющее, ведь отныне им предстоит поселиться под одной крышей.

Раздача: Изображение

Изображение
Доп. информация
Бюджет: $38 000 000
Сборы в мире: $92 682 919
Сборы в США: $52 221 677
Сборы в России: $2 420 281
Мировая премьера: 2 октября 2010
Изображение Релиз на DVD: 17 февраля 2011, «CP-Digital»
Изображение Релиз на Blu-ray: 17 февраля 2011, «CP-Digital»
MediaInfo
General
Unique ID : 244101939872640077290944992662951302747 (0xB7A452D410F0BFDA8DCBD7CD0BF8165B)
Complete name : D:\видео\Zhizn.kak.ona.est.2010.x264.BDRip(1080p).mkv
Format : Matroska
File size : 9.81 GiB
Duration : 1h 54mn
Overall bit rate : 12.2 Mbps
Movie name : --SCHUMAHER--
Encoded date : UTC 2011-03-29 05:36:50
Writing application : mkvmerge v4.0.0 ('The Stars were mine') сборка от Jun 6 2010 16:18:42
Writing library : libebml v1.0.0 + libmatroska v1.0.0
Video
ID : 1
Format : AVC
Format/Info : Advanced Video Codec
Format profile : High@L4.1
Format settings, CABAC : Yes
Format settings, ReFrames : 5 frames
Codec ID : V_MPEG4/ISO/AVC
Duration : 1h 54mn
Bit rate : 10.4 Mbps
Width : 1 920 pixels
Height : 798 pixels
Display aspect ratio : 2.40:1
Frame rate : 23.976 fps
Color space : YUV
Chroma subsampling : 4:2:0
Bit depth : 8 bits
Scan type : Progressive
Bits/(Pixel*Frame) : 0.282
Stream size : 8.10 GiB (83%)
Writing library : x264 core 107 r1772 c9dad9e
Encoding settings : cabac=1 / ref=5 / deblock=1:-3:-3 / analyse=0x3:0x113 / me=umh / subme=9 / psy=1 / psy_rd=1.10:0.15 / mixed_ref=1 / me_range=32 / chroma_me=1 / trellis=2 / 8x8dct=1 / cqm=2 / deadzone=21,11 / fast_pskip=0 / chroma_qp_offset=-2 / threads=12 / sliced_threads=0 / nr=0 / decimate=1 / interlaced=0 / constrained_intra=0 / bframes=6 / b_pyramid=2 / b_adapt=2 / b_bias=0 / direct=3 / weightb=1 / open_gop=0 / weightp=2 / keyint=250 / keyint_min=23 / scenecut=40 / intra_refresh=0 / rc_lookahead=60 / rc=2pass / mbtree=1 / bitrate=10351 / ratetol=2.0 / qcomp=0.70 / qpmin=10 / qpmax=51 / qpstep=4 / cplxblur=20.0 / qblur=0.5 / vbv_maxrate=40000 / vbv_bufsize=30000 / ip_ratio=1.40 / aq=1:0.90 / nal_hrd=none
Language : English
Audio #1
ID : 2
Format : AC-3
Format/Info : Audio Coding 3
Mode extension : CM (complete main)
Codec ID : A_AC3
Duration : 1h 54mn
Bit rate mode : Constant
Bit rate : 384 Kbps
Channel(s) : 6 channels
Channel positions : Front: L C R, Side: L R, LFE
Sampling rate : 48.0 KHz
Bit depth : 16 bits
Compression mode : Lossy
Stream size : 315 MiB (3%)
Language : Russian
Audio #2
ID : 3
Format : DTS
Format/Info : Digital Theater Systems
Codec ID : A_DTS
Duration : 1h 54mn
Bit rate mode : Constant
Bit rate : 1 510 Kbps
Channel(s) : 6 channels
Channel positions : Front: L C R, Side: L R, LFE
Sampling rate : 48.0 KHz
Bit depth : 24 bits
Compression mode : Lossy
Stream size : 1.21 GiB (12%)
Language : English
Text #1
ID : 4
Format : UTF-8
Codec ID : S_TEXT/UTF8
Codec ID/Info : UTF-8 Plain Text
Title : Russian (Forced)
Language : Russian
Text #2
ID : 5
Format : UTF-8
Codec ID : S_TEXT/UTF8
Codec ID/Info : UTF-8 Plain Text
Title : Russian
Language : Russian
Text #3
ID : 6
Format : UTF-8
Codec ID : S_TEXT/UTF8
Codec ID/Info : UTF-8 Plain Text
Title : English
Language : English
Свернуть
Свернуть

MPAA: Изображение
Качество: BDRip 1080p R5
Формат: MKV
Видео: AVC, 10.4 Mbps, 1 920х798, 23.976 fps
Аудио #1: Изображение AC-3, 384 Kbps, 6 ch, 48.0 KHz Russian
Аудио #2: Изображение DTS, 1 510 Kbps, 6 ch, 48.0 KHz English
Скриншоты
Изображение
Изображение
Изображение
Изображение
Свернуть
Не в сети
Профиль  
Начать новую темуОтветить на тему  [ 1 сообщение ] 
Вы не можете начинать темы
Вы не можете отвечать на сообщения
Вы не можете редактировать свои сообщения
Вы не можете удалять свои сообщения