Правила форума

Здесь находятся раздачи, на которых не было полного источника (сида) более месяца.
Вы можете вернуть релиз в соответствующий раздел, для этого напишите нам в специальной теме и встаньте на раздачу.
Новые релизы, повторяющие релизы в архиве, повторами не считаются.
Начать новую темуОтветить на тему  [ Сообщений: 2 ] 
Сообщения
 Добавлено: 2013-02-28 22:19
DVD Release Group
Аватара пользователя
Стаж: 7 лет 1 месяц
Сообщений: 3558
Спасибок: 247249
Лайков: 1018
Жизнь Пи

Life of Pi


Изображение


Год выпуска: 2012
Страна: США, Тайвань
Жанр: Драма, приключения
Продолжительность: 02:06:59
Перевод: Профессиональный (полное дублирование)
Субтитры: Английские
Режиссер: Энг Ли
В ролях: Сурадж Шарма, Ирфан Кхан, Табу, Рейф Сполл, Жерар Депардье, Аюш Тандон, Гаутам Белур, Адиль Хуссэйн, Аян Кхан, Мохд Аббас Халили
Описание: Главный герой фильма оказывается на шлюпке посреди океана в компании неожиданного попутчика — грозного бенгальского тигра.
Изображение
Sample:
http://multi-up.com/836876
Релиз группы:
Изображение
Дополнительно: Сохранены оригинальные чаптеры как на Blu-Ray.
Качество: BDRip 720p
Формат: MKV
Видео кодек: H.264
Аудио кодек: AC3, DTS
Видео: 1280x688 23.98fps 4648Kbps 0.220bit/pixel
Аудио:
Аудио Rus: AC3 48kHz 6ch 448Kbps
Аудио Eng: DTS 48kHz 6ch 1510Kbps
"MediaInfo"
Формат : Matroska
Версия формата : Version 2
Размер файла : 5,86 Гбайт
Продолжительность : 2 ч. 7 м.
Общий поток : 6605 Кбит/сек
Дата кодирования : UTC 2013-02-28 14:24:57
Программа кодирования : mkvmerge v5.5.0 ('Healer') built on Apr 6 2012 21:43:24
Библиотека кодирования : libebml v1.2.3 + libmatroska v1.3.0

Видео
Идентификатор : 5
Формат : AVC
Формат/Информация : Advanced Video Codec
Профиль формата : High@L4.1
Параметр CABAC формата : Да
Параметр ReFrames формата : 5 кадров
Идентификатор кодека : V_MPEG4/ISO/AVC
Продолжительность : 2 ч. 7 м.
Битрейт : 4648 Кбит/сек
Ширина : 1280 пикселей
Высота : 688 пикселей
Соотношение сторон : 1,860
Частота кадров : 23,976 кадра/сек
Цветовое пространство : YUV
Субдискретизация насыщенности : 4:2:0
Битовая глубина : 8 бит
Тип развёртки : Прогрессивная
Бит/(Пиксели*Кадры) : 0.220
Размер потока : 4,01 Гбайт (68%)
Библиотека кодирования : x264 core 129 r2245 bc13772
Настройки программы : cabac=1 / ref=5 / deblock=1:0:0 / analyse=0x3:0x113 / me=umh / subme=8 / psy=1 / psy_rd=1.00:0.00 / mixed_ref=1 / me_range=16 / chroma_me=1 / trellis=1 / 8x8dct=1 / cqm=0 / deadzone=21,11 / fast_pskip=1 / chroma_qp_offset=-2 / threads=12 / lookahead_threads=2 / sliced_threads=0 / nr=0 / decimate=1 / interlaced=0 / bluray_compat=0 / constrained_intra=0 / bframes=3 / b_pyramid=2 / b_adapt=2 / b_bias=0 / direct=3 / weightb=1 / open_gop=0 / weightp=2 / keyint=240 / keyint_min=23 / scenecut=40 / intra_refresh=0 / rc_lookahead=50 / rc=2pass / mbtree=1 / bitrate=4648 / ratetol=1.0 / qcomp=0.60 / qpmin=0 / qpmax=69 / qpstep=4 / cplxblur=20.0 / qblur=0.5 / ip_ratio=1.40 / aq=1:1.00
Default : Да
Forced : Да

Аудио #1
Идентификатор : 1
Формат : DTS
Формат/Информация : Digital Theater Systems
Профиль формата : ES
Идентификатор кодека : A_DTS
Продолжительность : 2 ч. 7 м.
Вид битрейта : Постоянный
Битрейт : 1510 Кбит/сек
Каналы : 6 каналов
Расположение каналов : Front: L C R, Side: L R, LFE
Частота : 48,0 КГц
Битовая глубина : 24 бит
Метод сжатия : С потерями
Размер потока : 1,34 Гбайт (23%)
Язык : English
Default : Нет
Forced : Да

Аудио #2
Идентификатор : 2
Формат : AC-3
Формат/Информация : Audio Coding 3
Расширение режима : CM (complete main)
Идентификатор кодека : A_AC3
Продолжительность : 2 ч. 7 м.
Вид битрейта : Постоянный
Битрейт : 448 Кбит/сек
Каналы : 6 каналов
Расположение каналов : Front: L C R, Side: L R, LFE
Частота : 48,0 КГц
Битовая глубина : 16 бит
Метод сжатия : С потерями
Задержка видео : 930 мс.
Размер потока : 407 Мбайт (7%)
Язык : Russian
Default : Да
Forced : Нет

Текст #1
Идентификатор : 3
Формат : UTF-8
Идентификатор кодека : S_TEXT/UTF8
Идентификатор кодека/Информация : UTF-8 Plain Text
Язык : English
Default : Да
Forced : Да

Текст #2
Идентификатор : 4
Формат : UTF-8
Идентификатор кодека : S_TEXT/UTF8
Идентификатор кодека/Информация : UTF-8 Plain Text
Язык : English
Default : Нет
Forced : Нет

Меню
00:00:00.000 : :00:00:00.000
00:03:58.822 : :00:03:58.822
00:11:13.172 : :00:11:13.172
00:15:24.924 : :00:15:24.924
00:21:29.622 : :00:21:29.622
00:25:44.543 : :00:25:44.543
00:29:46.827 : :00:29:46.827
00:31:31.014 : :00:31:31.014
00:35:34.299 : :00:35:34.299
00:45:24.347 : :00:45:24.347
00:50:21.894 : :00:50:21.894
00:54:13.333 : :00:54:13.333
00:57:18.352 : :00:57:18.352
01:00:07.395 : :01:00:07.395
01:04:12.057 : :01:04:12.057
01:09:32.085 : :01:09:32.085
01:11:48.054 : :01:11:48.054
01:13:34.285 : :01:13:34.285
01:16:47.561 : :01:16:47.561
01:21:31.178 : :01:21:31.178
01:23:10.027 : :01:23:10.027
01:26:30.852 : :01:26:30.852
01:31:21.434 : :01:31:21.434
01:34:13.857 : :01:34:13.857
01:43:42.675 : :01:43:42.675
01:47:38.661 : :01:47:38.661
01:55:20.080 : :01:55:20.080
01:59:16.274 : :01:59:16.274
Свернуть

"Скриншоты"
Изображение
Изображение
Изображение
Изображение
Свернуть

Раздача группы:
Изображение
Не в сети
Профиль  
 Добавлено: 2013-03-09 17:19 (спустя 8 дней)
Модератор
Аватара пользователя
Стаж: 8 лет 11 месяцев
Сообщений: 516
Спасибок: 26888
Лайков: 1
viewtopic.php?f=1750&t=502110
Не в сети
Профиль  
Начать новую темуОтветить на тему  [ Сообщений: 2 ] 
Вы не можете начинать темы
Вы не можете отвечать на сообщения
Вы не можете редактировать свои сообщения
Вы не можете удалять свои сообщения