Правила форума

Здесь находятся раздачи, на которых не было полного источника (сида) более месяца.
Вы можете вернуть релиз в соответствующий раздел, для этого напишите нам в специальной теме и встаньте на раздачу.
Новые релизы, повторяющие релизы в архиве, повторами не считаются.
Начать новую темуОтветить на тему  [ Сообщений: 9 ] 
Сообщения
 Добавлено: 2013-02-21 10:58
DVD Release Group
Аватара пользователя
Стаж: 7 лет 1 месяц
Сообщений: 3570
Спасибок: 247851
Лайков: 1020
Жизнь Пи

Life of Pi


Изображение


Год выпуска: 2012
Страна: США, Китай
Жанр: Драма, приключения
Продолжительность: 02:07:22
Перевод: Профессиональный (полное дублирование) Чистый звук
Субтитры: Русские
Режиссер: Энг Ли
В ролях: Сурадж Шарма, Ирфан Кхан, Табу, Рейф Сполл, Жерар Депардье, Аюш Тандон, Гаутам Белур, Адиль Хуссэйн, Аян Кхан, Мохд Аббас Халили
Описание: Главный герой фильма оказывается на шлюпке посреди океана в компании неожиданного попутчика — грозного бенгальского тигра.
Изображение
Sample:
http://multi-up.com/833900
Релиз группы:
Изображение
Дополнительно: сохранены чаптеры.
Качество: WEB-DL 720p
Формат: MKV
Видео кодек: H.264
Аудио кодек: AC3
Видео: 1280x688 23.98fps 3885Kbps 0.184bit/pixel
Аудио:
Аудио Rus: 48kHz 2ch 192Kbps
Аудио Eng: 48kHz 6ch 384Kbps
"MediaInfo"
Формат : Matroska
Версия формата : Version 2
Размер файла : 4,05 Гбайт
Продолжительность : 2 ч. 7 м.
Общий поток : 4551 Кбит/сек
Название фильма : UNIONGANG.tv
Дата кодирования : UTC 2013-02-20 17:11:45
Программа кодирования : mkvmerge v5.3.0 ('I could have danced') built on Feb 9 2012 10:38:07
Библиотека кодирования : libebml v1.2.3 + libmatroska v1.3.0

Видео
Идентификатор : 1
Формат : AVC
Формат/Информация : Advanced Video Codec
Профиль формата : High@L3.1
Параметр CABAC формата : Нет
Параметр ReFrames формата : 2 кадра
Идентификатор кодека : V_MPEG4/ISO/AVC
Продолжительность : 2 ч. 7 м.
Битрейт : 3885 Кбит/сек
Ширина : 1280 пикселей
Высота : 688 пикселей
Соотношение сторон : 1,860
Частота кадров : 23,976 кадра/сек
Цветовое пространство : YUV
Субдискретизация насыщенности : 4:2:0
Битовая глубина : 8 бит
Тип развёртки : Прогрессивная
Бит/(Пиксели*Кадры) : 0.184
Размер потока : 3,46 Гбайт (85%)
Заголовок : by HD4FUN
Язык : English
Default : Да
Forced : Нет
Основные цвета : BT.709-5, BT.1361, IEC 61966-2-4, SMPTE RP177
Характеристики трансфера : BT.709-5, BT.1361
Коэффициенты матрицы : BT.709-5, BT.1361, IEC 61966-2-4 709, SMPTE RP177

Аудио #1
Идентификатор : 2
Формат : AC-3
Формат/Информация : Audio Coding 3
Расширение режима : CM (complete main)
Идентификатор кодека : A_AC3
Продолжительность : 2 ч. 7 м.
Вид битрейта : Постоянный
Битрейт : 384 Кбит/сек
Каналы : 6 каналов
Расположение каналов : Front: L C R, Side: L R, LFE
Частота : 48,0 КГц
Битовая глубина : 16 бит
Метод сжатия : С потерями
Размер потока : 350 Мбайт (8%)
Язык : English
Default : Нет
Forced : Нет

Аудио #2
Идентификатор : 4
Формат : AC-3
Формат/Информация : Audio Coding 3
Расширение режима : CM (complete main)
Идентификатор кодека : A_AC3
Продолжительность : 2 ч. 7 м.
Вид битрейта : Постоянный
Битрейт : 192 Кбит/сек
Каналы : 2 канала
Расположение каналов : Front: L R
Частота : 48,0 КГц
Битовая глубина : 16 бит
Метод сжатия : С потерями
Размер потока : 175 Мбайт (4%)
Заголовок : Line
Язык : Russian
Default : Да
Forced : Нет

Текст #1
Идентификатор : 3
Формат : UTF-8
Идентификатор кодека : S_TEXT/UTF8
Идентификатор кодека/Информация : UTF-8 Plain Text
Язык : English
Default : Нет
Forced : Нет

Текст #2
Идентификатор : 5
Формат : UTF-8
Идентификатор кодека : S_TEXT/UTF8
Идентификатор кодека/Информация : UTF-8 Plain Text
Язык : Russian
Default : Нет
Forced : Нет

Меню
00:00:00.000 : en:Chapter 1
00:03:57.000 : en:Chapter 2
00:11:13.000 : en:Chapter 3
00:15:23.000 : en:Chapter 4
00:21:29.000 : en:Chapter 5
00:25:44.000 : en:Chapter 6
00:29:46.000 : en:Chapter 7
00:31:31.000 : en:Chapter 8
00:35:34.000 : en:Chapter 9
00:45:22.000 : en:Chapter 10
00:50:21.000 : en:Chapter 11
00:54:13.000 : en:Chapter 12
00:57:17.000 : en:Chapter 13
01:00:07.000 : en:Chapter 14
01:04:12.000 : en:Chapter 15
01:09:31.000 : en:Chapter 16
01:11:48.000 : en:Chapter 17
01:13:32.000 : en:Chapter 18
01:16:47.000 : en:Chapter 19
01:21:31.000 : en:Chapter 20
01:23:06.000 : en:Chapter 21
01:26:30.000 : en:Chapter 22
01:31:19.000 : en:Chapter 23
01:34:11.000 : en:Chapter 24
01:43:42.000 : en:Chapter 25
01:47:38.000 : en:Chapter 26
01:55:20.000 : en:Chapter 27
01:59:13.000 : en:Chapter 28
Свернуть

"Скриншоты"
Изображение
Изображение
Изображение
Изображение
Свернуть

Раздача группы:
Изображение
В сети
Профиль  
 Добавлено: 2013-02-21 20:17 (спустя 9 часов)
Стаж: 7 лет 1 месяц
Сообщений: 23
Качество норм.звук тоже.спасибо!
Не в сети
Профиль  
 Добавлено: 2013-02-21 20:32 (спустя 14 минут)
Top-seeder
Аватара пользователя
Стаж: 7 лет 9 месяцев
Возраст: 21
Сообщений: 100
Спасибок: 315
а 1080 когда будет?
Не в сети
Профиль  
 Добавлено: 2013-02-21 20:37 (спустя 5 минут)
DVD Release Group
Аватара пользователя
Стаж: 7 лет 1 месяц
Сообщений: 3570
Спасибок: 247851
Лайков: 1020

нол:

а 1080 когда будет?
А надо?
В сети
Профиль  
 Добавлено: 2013-02-21 20:58 (спустя 20 минут)
Top-seeder
Аватара пользователя
Стаж: 7 лет 9 месяцев
Возраст: 21
Сообщений: 100
Спасибок: 315

rastor:

нол:

а 1080 когда будет?
А надо?
ага)
Не в сети
Профиль  
 Добавлено: 2013-02-21 21:41 (спустя 43 минуты)
DVD Release Group
Аватара пользователя
Стаж: 7 лет 1 месяц
Сообщений: 3570
Спасибок: 247851
Лайков: 1020
нол
viewtopic.php?f=1743&t=500567&p=5671890#p5671890
В сети
Профиль  
 Добавлено: 2013-02-21 22:04 (спустя 23 минуты)
Top-seeder
Аватара пользователя
Стаж: 7 лет 9 месяцев
Возраст: 21
Сообщений: 100
Спасибок: 315
Спасибо, но что-то размер почти не отличается...)
Не в сети
Профиль  
 Добавлено: 2013-02-21 23:51 (спустя 1 час 46 минут)
Аватара пользователя
Стаж: 8 лет 3 месяца
Сообщений: 106
Спасибок: 21
Лайков: 7
Улётный фильмец.спасибо за качество! :bra_vo:
Не в сети
Профиль  
 Добавлено: 2013-03-09 17:17 (спустя 15 дней)
Модератор
Аватара пользователя
Стаж: 8 лет 11 месяцев
Сообщений: 516
Спасибок: 26888
Лайков: 1
viewtopic.php?f=1750&t=502110
Не в сети
Профиль  
Начать новую темуОтветить на тему  [ Сообщений: 9 ] 
Вы не можете начинать темы
Вы не можете отвечать на сообщения
Вы не можете редактировать свои сообщения
Вы не можете удалять свои сообщения