Правила форума

Здесь находятся раздачи, на которых не было полного источника (сида) более месяца.
Вы можете вернуть релиз в соответствующий раздел, для этого напишите нам в специальной теме и встаньте на раздачу.
Новые релизы, повторяющие релизы в архиве, повторами не считаются.
Начать новую темуОтветить на тему  [ Сообщений: 12 ] 
Сообщения
 Добавлено: 2013-02-21 21:37
DVD Release Group
Аватара пользователя
Стаж: 7 лет 1 месяц
Сообщений: 3569
Спасибок: 247763
Лайков: 1020
Жизнь Пи

Life of Pi


Изображение


Год выпуска: 2012
Страна: США, Китай
Жанр: Драма, приключения
Продолжительность: 02:07:22
Перевод: Профессиональный (полное дублирование) Чистый звук
Субтитры: Русские
Режиссер: Энг Ли
В ролях: Сурадж Шарма, Ирфан Кхан, Табу, Рейф Сполл, Жерар Депардье, Аюш Тандон, Гаутам Белур, Адиль Хуссэйн, Аян Кхан, Мохд Аббас Халили
Описание: Главный герой фильма оказывается на шлюпке посреди океана в компании неожиданного попутчика — грозного бенгальского тигра.
Изображение
Sample:
http://multi-up.com/833902
Релиз группы:
Изображение
Дополнительно: сохранены чаптеры.
Качество: WEB-DL 1080p
Формат: MKV
Видео кодек: H.264
Аудио кодек: AC3
Видео: 1916x1032 23.98fps 4816Kbps
Аудио:
Аудио Rus: 48kHz 2ch 192Kbps
Аудио Eng: 48kHz 6ch 384Kbps
"MediaInfo"
Формат : Matroska
Формат : Matroska
Версия формата : Version 2
Размер файла : 4,89 Гбайт
Продолжительность : 2 ч. 7 м.
Общий поток : 5501 Кбит/сек
Название фильма : UNIONGANG.tv
Дата кодирования : UTC 2013-02-20 17:27:34
Программа кодирования : mkvmerge v5.3.0 ('I could have danced') built on Feb 9 2012 10:38:07
Библиотека кодирования : libebml v1.2.3 + libmatroska v1.3.0

Видео
Идентификатор : 1
Формат : AVC
Формат/Информация : Advanced Video Codec
Профиль формата : High@L4.0
Параметр CABAC формата : Да
Параметр ReFrames формата : 4 кадра
Режим смешивания : Header stripping
Идентификатор кодека : V_MPEG4/ISO/AVC
Продолжительность : 2 ч. 7 м.
Битрейт : 4816 Кбит/сек
Ширина : 1916 пикселей
Высота : 1032 пикселя
Соотношение сторон : 1,857
Частота кадров : 23,976 кадра/сек
Цветовое пространство : YUV
Субдискретизация насыщенности : 4:2:0
Битовая глубина : 8 бит
Тип развёртки : Прогрессивная
Бит/(Пиксели*Кадры) : 0.102
Размер потока : 4,28 Гбайт (88%)
Заголовок : CrazyHDSource
Язык : English
Default : Да
Forced : Нет
Основные цвета : BT.709-5, BT.1361, IEC 61966-2-4, SMPTE RP177
Характеристики трансфера : BT.709-5, BT.1361
Коэффициенты матрицы : BT.709-5, BT.1361, IEC 61966-2-4 709, SMPTE RP177

Аудио #1
Идентификатор : 2
Формат : AC-3
Формат/Информация : Audio Coding 3
Расширение режима : CM (complete main)
Режим смешивания : Header stripping
Идентификатор кодека : A_AC3
Продолжительность : 2 ч. 7 м.
Вид битрейта : Постоянный
Битрейт : 384 Кбит/сек
Каналы : 6 каналов
Расположение каналов : Front: L C R, Side: L R, LFE
Частота : 48,0 КГц
Битовая глубина : 16 бит
Метод сжатия : С потерями
Размер потока : 350 Мбайт (7%)
Язык : English
Default : Нет
Forced : Нет

Аудио #2
Идентификатор : 3
Формат : AC-3
Формат/Информация : Audio Coding 3
Расширение режима : CM (complete main)
Режим смешивания : Header stripping
Идентификатор кодека : A_AC3
Продолжительность : 2 ч. 7 м.
Вид битрейта : Постоянный
Битрейт : 192 Кбит/сек
Каналы : 2 канала
Расположение каналов : Front: L R
Частота : 48,0 КГц
Битовая глубина : 16 бит
Метод сжатия : С потерями
Размер потока : 175 Мбайт (3%)
Заголовок : Line
Язык : Russian
Default : Да
Forced : Нет

Текст #1
Идентификатор : 4
Формат : UTF-8
Идентификатор кодека : S_TEXT/UTF8
Идентификатор кодека/Информация : UTF-8 Plain Text
Язык : Russian
Default : Нет
Forced : Нет

Текст #2
Идентификатор : 5
Формат : UTF-8
Идентификатор кодека : S_TEXT/UTF8
Идентификатор кодека/Информация : UTF-8 Plain Text
Язык : English
Default : Нет
Forced : Нет

Меню
00:00:00.000 : en:Chapter 1
00:03:57.000 : en:Chapter 2
00:11:13.000 : en:Chapter 3
00:15:23.000 : en:Chapter 4
00:21:29.000 : en:Chapter 5
00:25:44.000 : en:Chapter 6
00:29:46.000 : en:Chapter 7
00:31:31.000 : en:Chapter 8
00:35:34.000 : en:Chapter 9
00:45:22.000 : en:Chapter 10
00:50:21.000 : en:Chapter 11
00:54:13.000 : en:Chapter 12
00:57:17.000 : en:Chapter 13
01:00:07.000 : en:Chapter 14
01:04:12.000 : en:Chapter 15
01:09:31.000 : en:Chapter 16
01:11:48.000 : en:Chapter 17
01:13:32.000 : en:Chapter 18
01:16:47.000 : en:Chapter 19
01:21:31.000 : en:Chapter 20
01:23:06.000 : en:Chapter 21
01:26:30.000 : en:Chapter 22
01:31:19.000 : en:Chapter 23
01:34:11.000 : en:Chapter 24
01:43:42.000 : en:Chapter 25
01:47:38.000 : en:Chapter 26
01:55:20.000 : en:Chapter 27
01:59:13.000 : en:Chapter 28
Свернуть

"Скриншоты"
Изображение
Изображение
Изображение
Изображение
Свернуть

Раздача группы:
Изображение
Не в сети
Профиль  
 Добавлено: 2013-02-24 12:30 (спустя 2 дня 14 часов)
Аватара пользователя
Стаж: 8 лет 6 месяцев
Сообщений: 26
Спасибок: 629
посмотрим что там. почему временная раздача?
Не в сети
Профиль  
 Добавлено: 2013-02-24 13:28 (спустя 57 минут)
Top-seeder
Аватара пользователя
Стаж: 7 лет 9 месяцев
Возраст: 21
Сообщений: 100
Спасибок: 315
У меня что-то перевода нету...
Не в сети
Профиль  
 Добавлено: 2013-02-24 14:00 (спустя 32 минуты)
Top-seeder
Аватара пользователя
Стаж: 8 лет 3 месяца
Сообщений: 714
Спасибок: 103
Лайков: 13
у меня тоже перевода не было , оказалось нужно дорожку звуковую сменить:)

единственная проблема, звук как будто не синхронизирован, да и висьнет постоянно, у меня таких проблем раньше никода не было,
попробую скачать 720р
Не в сети
Профиль  
 Добавлено: 2013-02-24 21:14 (спустя 7 часов)
Top-seeder
Аватара пользователя
Стаж: 7 лет 9 месяцев
Возраст: 21
Сообщений: 100
Спасибок: 315

Enic:

у меня тоже перевода не было , оказалось нужно дорожку звуковую сменить:)

единственная проблема, звук как будто не синхронизирован, да и висьнет постоянно, у меня таких проблем раньше никода не было,
попробую скачать 720р
а как сменить?) у меня на телеке что-то нету такой функции)
Не в сети
Профиль  
 Добавлено: 2013-02-24 22:20 (спустя 1 час 6 минут)
Стаж: 5 лет 11 месяцев
Сообщений: 2
хороший фильм !! спасибо ))
Не в сети
Профиль  
 Добавлено: 2013-02-27 16:49 (спустя 2 дня 18 часов)
Стаж: 4 года
Сообщений: 10
В Русских субтитрах нет перевода Индийского, пришлось читать английские)
Не в сети
Профиль  
 Добавлено: 2013-02-27 19:13 (спустя 2 часа 23 минуты)
Стаж: 7 лет 9 месяцев
Сообщений: 8
Спасибок: 27
копирую на флешку 16гб пишет "файл слишком велик для конечной файловой системы" а весит всего почти 5гб
Не в сети
Профиль  
 Добавлено: 2013-02-27 19:17 (спустя 4 минуты)
Стаж: 5 лет 7 месяцев
Сообщений: 7

DIKOS93:

копирую на флешку 16гб пишет "файл слишком велик для конечной файловой системы" а весит всего почти 5гб
ты флешку в NTFS отформатируй и все будет супер!!!
Не в сети
Профиль  
 Добавлено: 2013-02-27 22:33 (спустя 3 часа)
Стаж: 5 лет 3 месяца
Сообщений: 150
Лайков: 2
Смотрел на одном дыхании!Затрагивает до мурашек!Смотрите обязательно!
Не в сети
Профиль  
 Добавлено: 2013-03-01 03:29 (спустя 1 день 4 часа)
Аватара пользователя
Стаж: 8 лет 1 месяц
Сообщений: 185
Лайков: 3
Да ну...значит про тигра он всё выдумал ((
Не в сети
Профиль  
 Добавлено: 2013-03-09 17:18 (спустя 8 дней)
Модератор
Аватара пользователя
Стаж: 8 лет 11 месяцев
Сообщений: 516
Спасибок: 26888
Лайков: 1
viewtopic.php?f=1750&t=502110
Не в сети
Профиль  
Начать новую темуОтветить на тему  [ Сообщений: 12 ] 
Вы не можете начинать темы
Вы не можете отвечать на сообщения
Вы не можете редактировать свои сообщения
Вы не можете удалять свои сообщения