Правила форума

Здесь находятся раздачи, на которых не было полного источника (сида) более месяца.
Вы можете вернуть релиз в соответствующий раздел, для этого напишите нам в специальной теме и встаньте на раздачу.
Новые релизы, повторяющие релизы в архиве, повторами не считаются.
Начать новую темуОтветить на тему  [ 1 сообщение ] 
Сообщения
 Добавлено: 2012-03-09 12:26
Модератор релиз-группы
Аватара пользователя
Стаж: 9 лет 1 месяц
Возраст: 97
Сообщений: 11659
Спасибок: 6532
Лайков: 269
Как отделаться от парня за 10 дней / How to Lose a Guy in 10 Days

Изображение


Год выпуска: 2003
Страна: Germany, USA
Жанр: комедия, мелодрама
Продолжительность: 01:55:29
Перевод: Профессиональный (полное дублирование)

Режиссер: Дональд Петри /Donald Petrie/

В ролях: Кэйт Хадсон (Kate Hudson) · Мэттью МакКонехи (Matthew McConaughey) · Кэтрин Хан (Kathryn Hahn) · Энни Парис (Annie Parisse) · Адам Голдберг (Adam Goldberg) · Майкл Мишель (Michael Michele) · Селья Уэстон (Celia Weston)

Описание: Журналистка Энди Андерсон из журнала получает довольно необычное редакционное задание, которое к тому же надо сделать очень быстро. Ей вменяется в обязанность написать статью о том, что выдумывают женщины для того, чтобы отделаться от мужчины, когда они его больше не хотят лицезреть рядом. На все про все у нее только 10 дней, через которые материал должен лежать на столе главного редактора. Ей необходимо найти в толпе парня, влюбить в себя, а затем совершить все классические выкрутасы капризной красотки. На беду Энди ее выбор пал на молодого рекламного агента Бенджамина Бэрри, который сам как раз заключил со своим боссом пари, что он сможет влюбить в себя девушку за 10 дней. Может ли такое странное знакомство, основанное на авантюре и замешанное на лжи, привести к взаимности?
Изображение
Качество: BDRip 1080p
Формат: mkv
Видео: AVC, 1920x1080, 23 fps, 9207 Kbit/s
Аудио: Русский АС3, 48000 Hz, 6 каналов, 448 kbit/s
Аудио: Английский АС3, 48000 Hz, 6 каналов, 640 kbit/s
Субтитры: английские
скриншоты

Изображение

Изображение

Изображение
Свернуть
Mi
Format : Matroska
Format version : Version 2
File size : 8.30 GiB
Duration : 1h 55mn
Overall bit rate : 10.3 Mbps
Encoded date : UTC 2009-08-08 02:54:24
Writing application : mkvmerge v2.9.5 ('Tu es le seul') built on Jun 7 2009 11:07:07
Writing library : libebml v0.7.7 + libmatroska v0.8.1

Video
ID : 1
Format : AVC
Format/Info : Advanced Video Codec
Format profile : High@L4.0
Format settings, CABAC : Yes
Format settings, ReFrames : 4 frames
Codec ID : V_MPEG4/ISO/AVC
Duration : 1h 55mn
Bit rate : 9 207 Kbps
Width : 1 920 pixels
Height : 1 080 pixels
Display aspect ratio : 16:9
Frame rate : 23.976 fps
Color space : YUV
Chroma subsampling : 4:2:0
Bit depth : 8 bits
Scan type : Progressive
Bits/(Pixel*Frame) : 0.185
Stream size : 7.26 GiB (87%)
Writing library : x264 core 68 r1195 5d75a9b
Encoding settings : cabac=1 / ref=4 / deblock=1:0:0 / analyse=0x3:0x113 / me=umh / subme=7 / psy_rd=1.0:0.0 / mixed_ref=1 / me_range=16 / chroma_me=1 / trellis=1 / 8x8dct=1 / cqm=0 / deadzone=21,11 / chroma_qp_offset=-2 / threads=6 / nr=0 / decimate=1 / mbaff=0 / bframes=3 / b_pyramid=1 / b_adapt=1 / b_bias=0 / direct=1 / wpredb=1 / keyint=250 / keyint_min=25 / scenecut=40 / rc=2pass / bitrate=9207 / ratetol=1.0 / qcomp=0.60 / qpmin=10 / qpmax=51 / qpstep=4 / cplxblur=20.0 / qblur=0.5 / ip_ratio=1.40 / pb_ratio=1.30 / aq=1:1.00
Language : English
Default : Yes
Forced : No

Audio #1
ID : 2
Format : AC-3
Format/Info : Audio Coding 3
Mode extension : CM (complete main)
Codec ID : A_AC3
Duration : 1h 55mn
Bit rate mode : Constant
Bit rate : 448 Kbps
Channel(s) : 6 channels
Channel positions : Front: L C R, Side: L R, LFE
Sampling rate : 48.0 KHz
Bit depth : 16 bits
Compression mode : Lossy
Delay relative to video : 2s 0ms
Stream size : 370 MiB (4%)
Language : Russian
Default : Yes
Forced : No

Audio #2
ID : 3
Format : AC-3
Format/Info : Audio Coding 3
Mode extension : CM (complete main)
Codec ID : A_AC3
Duration : 1h 55mn
Bit rate mode : Constant
Bit rate : 640 Kbps
Channel(s) : 6 channels
Channel positions : Front: L C R, Side: L R, LFE
Sampling rate : 48.0 KHz
Bit depth : 16 bits
Compression mode : Lossy
Stream size : 529 MiB (6%)
Language : English
Default : No
Forced : No

Text
ID : 4
Format : UTF-8
Codec ID : S_TEXT/UTF8
Codec ID/Info : UTF-8 Plain Text
Language : English
Default : Yes
Forced : No

Свернуть
_________________
Изображение
Не в сети
Профиль  
Начать новую темуОтветить на тему  [ 1 сообщение ] 
Вы не можете начинать темы
Вы не можете отвечать на сообщения
Вы не можете редактировать свои сообщения
Вы не можете удалять свои сообщения