Правила форума

Здесь находятся раздачи, на которых не было полного источника (сида) более месяца.
Вы можете вернуть релиз в соответствующий раздел, для этого напишите нам в специальной теме и встаньте на раздачу.
Новые релизы, повторяющие релизы в архиве, повторами не считаются.
Начать новую темуОтветить на тему  [ Сообщений: 2 ] 
Сообщения
 Добавлено: 2011-08-04 16:04
Top-seeder
Аватара пользователя
Стаж: 9 лет
Сообщений: 1399
Спасибок: 28651
Лайков: 8
Изображение


Информация о фильме
Название: Как заняться любовью с женщиной
Оригинальное название: How to Make Love to a Woman
Год выхода: 2010
Жанр: комедия
Режиссер: Скотт Калвер
В ролях: Джош Мейерс, Кристен Риттер, Юджин Бирд, Иен Сомерхолдер, Линдси Ричардс, Катрин Рейтман, Нора Киркпатрик, Кен Жонг, Джеймс Кайсон Ли, Айк Баринхолц

О фильме:
Энди не может удовлетворить свою подругу Лоурен. Ситуация осложняется, когда на горизонте неожиданно появляется друг детства Лоурен, красавец Даниэль. Энди в срочном порядке обращается за помощью к своим друзьям музыкантам.

Выпущено: США, How To Productions / I Lied About Everything Pictures
Продолжительность: 01:31:23
Озвучивание: Профессиональное (многоголосое) [лицензия]

Файл
Формат: MKV
Качество: BDRip 1080p [CHD]
Видео: 10.9 mb/s, 1920x1080
Аудио: Russian: AC3, 448 kb/s (6 ch) / English: DTS, 1510 kb/s (6 ch)
Субтитры: Russian, English
Размер: 8.20 G
Mi
Общее
Уникальный идентификатор : 185350420797030237670636773913947966976 (0x8B71314BBA88E97AB6DC50E396F28E00)
Полное имя : D:\Закачки\Как заняться любовью с женщиной.mkv
Формат : Matroska
Размер файла : 8,20 Гбайт
Продолжительность : 1 ч. 31 м.
Общий поток : 12,8 Мбит/сек
Название фильма : uniongang
Дата кодирования : UTC 2011-08-03 10:38:29
Программа кодирования : mkvmerge v3.4.0 ('Rapunzel') сборка от May 15 2010 09:38:20
Библиотека кодирования : libebml v0.8.0 + libmatroska v0.9.0

Видео
Идентификатор : 1
Формат : AVC
Формат/Информация : Advanced Video Codec
Профиль формата : High@L4.1
Параметр CABAC формата : Да
Параметр ReFrames формата : 4 кадра
Идентификатор кодека : V_MPEG4/ISO/AVC
Продолжительность : 1 ч. 31 м.
Битрейт : 10,9 Мбит/сек
Ширина : 1920 пикс.
Высота : 1080 пикс.
Соотношение сторон : 16:9
Частота кадров : 23,976 кадр/сек
Цветовое пространство : YUV
Подвыборка цветности : 4:2:0
Битовая глубина : 8 бит
Тип развёртки : Прогрессивная
Бит/(Пиксели*Кадры) : 0.219
Размер потока : 6,78 Гбайт (83%)
Заголовок : How.To.Make.Love.To.A.Woman.2009.BluRay.1080p.DTS.x264-CHD
Библиотека кодирования : x264 core 88 r1471 1144615
Настройки программы : cabac=1 / ref=4 / deblock=1:-3:-3 / analyse=0x3:0x113 / me=umh / subme=9 / psy=1 / psy_rd=1.05:0.10 / mixed_ref=1 / me_range=32 / chroma_me=1 / trellis=2 / 8x8dct=1 / cqm=0 / deadzone=21,11 / fast_pskip=0 / chroma_qp_offset=-2 / threads=6 / sliced_threads=0 / nr=0 / decimate=1 / mbaff=0 / constrained_intra=0 / bframes=3 / b_pyramid=2 / b_adapt=2 / b_bias=0 / direct=3 / wpredb=1 / wpredp=2 / keyint=250 / keyint_min=25 / scenecut=40 / intra_refresh=0 / rc_lookahead=60 / rc=2pass / mbtree=1 / bitrate=10906 / ratetol=2.0 / qcomp=0.70 / qpmin=10 / qpmax=51 / qpstep=4 / cplxblur=20.0 / qblur=0.5 / vbv_maxrate=50000 / vbv_bufsize=50000 / ip_ratio=1.40 / aq=1:1.00
Язык : English

Аудио #1
Идентификатор : 2
Формат : AC-3
Формат/Информация : Audio Coding 3
Расширение режима : CM (complete main)
Идентификатор кодека : A_AC3
Продолжительность : 1 ч. 31 м.
Вид битрейта : Постоянный
Битрейт : 448 Кбит/сек
Каналы : 6 каналов
Расположение каналов : Front: L C R, Side: L R, LFE
Частота : 48,0 КГц
Битовая глубина : 16 бит
Метод сжатия : С потерями
Размер потока : 294 Мбайт (4%)
Заголовок : MVO R5
Язык : Russian

Аудио #2
Идентификатор : 3
Формат : DTS
Формат/Информация : Digital Theater Systems
Идентификатор кодека : A_DTS
Продолжительность : 1 ч. 31 м.
Вид битрейта : Постоянный
Битрейт : 1510 Кбит/сек
Каналы : 6 каналов
Расположение каналов : Front: L C R, Side: L R, LFE
Частота : 48,0 КГц
Битовая глубина : 24 бит
Метод сжатия : С потерями
Размер потока : 991 Мбайт (12%)
Заголовок : Original
Язык : English

Текст #1
Идентификатор : 4
Формат : UTF-8
Идентификатор кодека : S_TEXT/UTF8
Идентификатор кодека/Информация : UTF-8 Plain Text
Заголовок : Russian R5
Язык : Russian

Текст #2
Идентификатор : 5
Формат : UTF-8
Идентификатор кодека : S_TEXT/UTF8
Идентификатор кодека/Информация : UTF-8 Plain Text
Заголовок : English
Язык : English

Свернуть
Скриншоты
ИзображениеИзображениеИзображение
Свернуть
Не в сети
Профиль  
 Добавлено: 2011-08-11 16:10 (спустя 7 дней)
Стаж: 6 лет 6 месяцев
Возраст: 30
Сообщений: 79
Спасибок: 14
спс
Не в сети
Профиль  
Начать новую темуОтветить на тему  [ Сообщений: 2 ] 
Вы не можете начинать темы
Вы не можете отвечать на сообщения
Вы не можете редактировать свои сообщения
Вы не можете удалять свои сообщения