Правила форума

Здесь находятся раздачи, на которых не было полного источника (сида) более месяца.
Вы можете вернуть релиз в соответствующий раздел, для этого напишите нам в специальной теме и встаньте на раздачу.
Новые релизы, повторяющие релизы в архиве, повторами не считаются.
Начать новую темуОтветить на тему  [ 1 сообщение ] 
Сообщения
 Добавлено: 2011-03-07 16:11
Модератор
Аватара пользователя
Стаж: 8 лет 1 месяц
Возраст: 20
Сообщений: 32130
Спасибок: 98576
Лайков: 80
Как знать... / How Do You Know?

Изображение
Год выпуска: 2010
Страна: Изображение США
Жанр: драма, мелодрама, комедия
Продолжительность: 02:00:44
Перевод: Оригинальный, Субтитры, Профессиональный (полное дублирование) [лицензия]

Режиссер: Джеймс Л. Брукс / James L. Brooks
Сценарий: Джеймс Л. Брукс / James L. Brooks
Продюсер: Джули Анселл / Julie Ansell, Джеймс Л. Брукс / James L. Brooks, Лоуренс Марк / Laurence Mark, Паула Вайнштейн / Paula Weinstein, Ричард Маркс / Richard Marks
Оператор: Януш Камински / Janusz Kaminski
Композитор: Ханс Циммер / Hans Zimmer

В ролях: Риз Уизерспун (Lisa), Пол Радд (George), Джек Николсон (Charles), Оуэн Уилсон (Matty,), Кэтрин Хан (Annie), Марк Линн-Бэйкер (Ron), Ленни Венито (Al), Молли Прайс (Coach Sally), Рон МакЛарти (George's Lawyer), Шелли Конн (Terry), Доменик Ломбардоззи (Bullpen Pitcher), Джон Торми (Doorman)
Дублёры: Андрей Лёвин (George), Станислав Концевич (Charles)
Описание: История любовного треугольника, в которой «белый воротничок» Джордж соперничает с профессиональным игроком в бейсбол Мэтти за сердце юной бейсболистки Лизы.

Раздача: Изображение

Изображение
Изображение
Доп. информация
Бюджет: $120 000 000
Сборы в мире: $42 861 997
Сборы в США: $30 212 620
Сборы в России: $1 380 485
Мировая премьера: 13 декабря 2010
Изображение Релиз на DVD: 17 марта 2011, «Columbia/Sony»
Изображение Релиз на Blu-ray: 28 апреля 2011, «Columbia/Sony»
MediaInfo
General
Unique ID                        : 234463883318506854593705708958654331115 (0xB06419F3C7C41B6DA8001AD3A5CAF8EB)
Complete name                    : D:\Downloads\How.Do.You.Know.2010.BluRay.1080p.Rus.Eng.TMD.mkv
Format                           : Matroska
File size                        : 12.5 GiB
Duration                         : 2h 0mn
Overall bit rate                 : 14.9 Mbps
Encoded date                     : UTC 2011-03-07 05:14:15
Writing application              : mkvmerge v4.4.0 ('Die Wiederkehr') сборка от Oct 31 2010 21:52:48
Writing library                  : libebml v1.0.0 + libmatroska v1.0.0
Video
ID                               : 1
Format                           : AVC
Format/Info                      : Advanced Video Codec
Format profile                   : High@L4.1
Format settings, CABAC           : Yes
Format settings, ReFrames        : 4 frames
Format settings, GOP             : M=4, N=16
Codec ID                         : V_MPEG4/ISO/AVC
Duration                         : 2h 0mn
Bit rate                         : 12.7 Mbps
Width                            : 1 920 pixels
Height                           : 1 038 pixels
Display aspect ratio             : 1.850
Frame rate                       : 23.976 fps
Color space                      : YUV
Chroma subsampling               : 4:2:0
Bit depth                        : 8 bits
Scan type                        : Progressive
Bits/(Pixel*Frame)               : 0.266
Stream size                      : 10.5 GiB (84%)
Title                            : How.Do.You.Know.2010
Writing library                  : x264 core 107 r1766 f9f0035
Encoding settings                : cabac=1 / ref=4 / deblock=1:-3:-3 / analyse=0x3:0x113 /
me=umh / subme=10 / psy=1 / psy_rd=1.10:0.15 / mixed_ref=1 / me_range=48 /
chroma_me=1 / trellis=2 / 8x8dct=1 / cqm=2 / deadzone=21,11 / fast_pskip=0 /
chroma_qp_offset=-2 / threads=12 / sliced_threads=0 / nr=0 / decimate=1 /
interlaced=0 / constrained_intra=0 / bframes=6 / b_pyramid=2 / b_adapt=2 / b_bias=0 /
direct=3 / weightb=1 / open_gop=0 / weightp=2 / keyint=250 / keyint_min=23 /
scenecut=40 / intra_refresh=0 / rc_lookahead=50 / rc=2pass / mbtree=1 / bitrate=12715 /
ratetol=1.0 / qcomp=0.70 / qpmin=10 / qpmax=51 / qpstep=4 / cplxblur=20.0 /
qblur=0.5 / vbv_maxrate=40000 / vbv_bufsize=30000 / ip_ratio=1.40 / aq=1:0.90 / nal_hrd=none
Language                         : English
Audio #1
ID                               : 2
Format                           : AC-3
Format/Info                      : Audio Coding 3
Mode extension                   : CM (complete main)
Codec ID                         : A_AC3
Duration                         : 2h 0mn
Bit rate mode                    : Constant
Bit rate                         : 640 Kbps
Channel(s)                       : 6 channels
Channel positions                : Front: L C R, Side: L R, LFE
Sampling rate                    : 48.0 KHz
Bit depth                        : 16 bits
Compression mode                 : Lossy
Stream size                      : 553 MiB (4%)
Title                            : AC3 5.1 @ 640 kbps - Dub, BluRay CEE
Language                         : Russian
Audio #2
ID                               : 3
Format                           : DTS
Format/Info                      : Digital Theater Systems
Codec ID                         : A_DTS
Duration                         : 2h 0mn
Bit rate mode                    : Constant
Bit rate                         : 1 510 Kbps
Channel(s)                       : 6 channels
Channel positions                : Front: L C R, Side: L R, LFE
Sampling rate                    : 48.0 KHz
Bit depth                        : 24 bits
Compression mode                 : Lossy
Stream size                      : 1.27 GiB (10%)
Title                            : DTS 5.1 @ 1536 kbps
Language                         : English
Text #1
ID                               : 4
Format                           : UTF-8
Codec ID                         : S_TEXT/UTF8
Codec ID/Info                    : UTF-8 Plain Text
Title                            : Forced
Language                         : Russian
Text #2
ID                               : 5
Format                           : UTF-8
Codec ID                         : S_TEXT/UTF8
Codec ID/Info                    : UTF-8 Plain Text
Language                         : English
Свернуть
Свернуть

MPAA: Изображение
Качество: BDRip 1080p R5
Формат: Matroska
Видео: 1920x1038 at 23.976 fps, x264@L4.1, 2pass, ~12715 kbps [CHD]
Аудио #1: Изображение Russian: 48 kHz, AC3, 3/2 (L,C,R,l,r) + LFE ch, ~640.00 kbps avg |Дублированный, BluRay CEE|
Аудио #2: Изображение Ukrainian: 48 kHz, AC3, 3/2 (L,C,R,l,r) + LFE ch, ~640.00 kbps avg |Дублированный, BluRay CEE| - отдельной раздачей
Аудио #3: Изображение English: 48 kHz, DTS, 3/2 (L,C,R,l,r) + LFE ch, ~1536.00 kbps avg
Cубтитры: Изображение русские (forced), Изображение английские

Знаете ли Вы, что...
  • В свое время Билл Мюррей участвовал в переговорах насчет роли отца, но ему отказали.
Свернуть
Скриншоты
Изображение
Изображение
Изображение
Изображение
Свернуть
Не в сети
Профиль  
Начать новую темуОтветить на тему  [ 1 сообщение ] 
Вы не можете начинать темы
Вы не можете отвечать на сообщения
Вы не можете редактировать свои сообщения
Вы не можете удалять свои сообщения