Правила форума

Здесь находятся раздачи, на которых не было полного источника (сида) более месяца.
Вы можете вернуть релиз в соответствующий раздел, для этого напишите нам в специальной теме и встаньте на раздачу.
Новые релизы, повторяющие релизы в архиве, повторами не считаются.
Начать новую темуОтветить на тему  [ 1 сообщение ] 
Сообщения
 Добавлено: 2011-08-10 22:50
Аватара пользователя
Стаж: 6 лет 6 месяцев
Сообщений: 214
Спасибок: 10697
Карантин 2: Терминал
Quarantine 2: Terminal

Изображение

Год выпуска: 2010
Страна: США

Жанр: ужасы, фантастика, триллер, детектив
Продолжительность: 01:22:46
Перевод: Профессиональный (многоголосый, закадровый)
Режиссер: Джон Пог
В ролях: Джордж Бэк, Эндрю Бенатор, Джейсон Бенжамин, Бри Блэр, Линн Коул, Джош Кук, Майкл Ковингтон, Джон Каррен, Филлип ДеВона, Джули Перез

Бюджет: $4 000 000

Мировая премьера: 27 января 2011
Релиз на DVD: 9 августа 2011, «Columbia/Sony»
Описание: После того, как один из пассажиров самолета выказал признаки необъяснимого заболевания сопровождающегося безумным поведением, самолет совершил вынужденную посадку. Сойдя с трапа пассажиры рейса обнаруживают себя в карантинной зоне, в которую превратили терминал прибытия городские службы. И не зря, надо сказать, превратили, так как один за другим подобной заразой заболевают другие пассажиры
Изображение 5.5/10 (1,379 votes) Изображение 4.642 (346)
MPAA: Изображение - Лицам до 17 лет обязательно присутствие взрослого

Релиз группы: Изображение Раздача: Изображение
Изображение
Формат: DVD Video
Качество: DVD9 R5
Видео: PAL 16:9 (720x576)
Аудио: Russian, English, Polish (Dolby AC3, 6 ch)
Субтитры: English, Polish, Arabic, Greek, Hindi, Islenska, Portugues, Turkish, Ukrainian
Размер: 4.40 GB
Дополнительно: нет
NFO
Title:
Size: 4.40 Gb ( 4 613 954 KBytes ) - DVD-9
Enabled regions: 1, 2, 3, 4, 5, 6, 7, 8

VTS_01 :
Play Length: 01:22:46
Video: PAL 16:9 (720x576) VBR, Auto Pan&Scan
Audio:
English (Dolby AC3, 6 ch)
Russian (Dolby AC3, 6 ch)
Polish (Dolby AC3, 6 ch)
Subtitles:
English
Russian
Polish
Arabic
Greek
Hindi
Islenska
Portugues
Turkish
Ukrainian
VTS_02 :
Play Length: 00:00:14
Video: PAL 16:9 (720x576) VBR, Auto Letterboxed
Audio:
English (Dolby AC3, 6 ch)

VTS_03 :
Play Length: 00:00:10
Video: PAL 16:9 (720x576) VBR, Auto Pan&Scan

VTS_04 :
Play Length: 00:00:08
Video: PAL 16:9 (720x576) VBR, Auto Pan&Scan

VTS_05 :
Play Length: 00:00:10
Video: PAL 4:3 (720x576) VBR
Audio:
English (Dolby AC3, 6 ch)
Subtitles:
Russian
Polish
Arabic
Greek
Hindi
Islenska
Portugues
Turkish
Свернуть
MediaInfo
General
Complete name : D:\Релизы\дороги\VTS_01_5.VOB
Format : MPEG-PS
File size : 310 MiB
Duration : 5mn 52s
Overall bit rate : 7 390 Kbps

Video
ID : 224 (0xE0)
Format : MPEG Video
Format version : Version 2
Format profile : Main@Main
Format settings, BVOP : Yes
Format settings, Matrix : Custom
Format settings, GOP : M=3, N=12
Duration : 5mn 51s
Bit rate mode : Variable
Bit rate : 5 899 Kbps
Nominal bit rate : 9 800 Kbps
Width : 720 pixels
Height : 576 pixels
Display aspect ratio : 16:9
Frame rate : 25.000 fps
Standard : PAL
Color space : YUV
Chroma subsampling : 4:2:0
Bit depth : 8 bits
Scan type : Interlaced
Scan order : Top Field First
Compression mode : Lossy
Bits/(Pixel*Frame) : 0.569
Stream size : 247 MiB (80%)

Audio #1
ID : 189 (0xBD)-128 (0x80)
Format : AC-3
Format/Info : Audio Coding 3
Mode extension : CM (complete main)
Muxing mode : DVD-Video
Duration : 5mn 52s
Bit rate mode : Constant
Bit rate : 448 Kbps
Channel(s) : 6 channels
Channel positions : Front: L C R, Side: L R, LFE
Sampling rate : 48.0 KHz
Bit depth : 16 bits
Compression mode : Lossy
Delay relative to video : -480ms
Stream size : 18.8 MiB (6%)

Audio #2
ID : 189 (0xBD)-129 (0x81)
Format : AC-3
Format/Info : Audio Coding 3
Mode extension : CM (complete main)
Muxing mode : DVD-Video
Duration : 5mn 52s
Bit rate mode : Constant
Bit rate : 448 Kbps
Channel(s) : 6 channels
Channel positions : Front: L C R, Side: L R, LFE
Sampling rate : 48.0 KHz
Bit depth : 16 bits
Compression mode : Lossy
Delay relative to video : -480ms
Stream size : 18.8 MiB (6%)

Audio #3
ID : 189 (0xBD)-130 (0x82)
Format : AC-3
Format/Info : Audio Coding 3
Mode extension : CM (complete main)
Muxing mode : DVD-Video
Duration : 5mn 52s
Bit rate mode : Constant
Bit rate : 448 Kbps
Channel(s) : 6 channels
Channel positions : Front: L C R, Side: L R, LFE
Sampling rate : 48.0 KHz
Bit depth : 16 bits
Compression mode : Lossy
Delay relative to video : -480ms
Stream size : 18.8 MiB (6%)

Text #1
ID : 189 (0xBD)-32 (0x20)
Format : RLE
Format/Info : Run-length encoding
Muxing mode : DVD-Video
Delay relative to video : 720ms

Text #2
ID : 189 (0xBD)-34 (0x22)
Format : RLE
Format/Info : Run-length encoding
Muxing mode : DVD-Video
Delay relative to video : 720ms

Text #3
ID : 189 (0xBD)-35 (0x23)
Format : RLE
Format/Info : Run-length encoding
Muxing mode : DVD-Video
Delay relative to video : 720ms

Text #4
ID : 189 (0xBD)-36 (0x24)
Format : RLE
Format/Info : Run-length encoding
Muxing mode : DVD-Video
Delay relative to video : 720ms

Text #5
ID : 189 (0xBD)-37 (0x25)
Format : RLE
Format/Info : Run-length encoding
Muxing mode : DVD-Video
Delay relative to video : 720ms

Text #6
ID : 189 (0xBD)-38 (0x26)
Format : RLE
Format/Info : Run-length encoding
Muxing mode : DVD-Video
Delay relative to video : 800ms

Text #7
ID : 189 (0xBD)-39 (0x27)
Format : RLE
Format/Info : Run-length encoding
Muxing mode : DVD-Video
Delay relative to video : 800ms

Text #8
ID : 189 (0xBD)-40 (0x28)
Format : RLE
Format/Info : Run-length encoding
Muxing mode : DVD-Video
Delay relative to video : 720ms

Text #9
ID : 189 (0xBD)-41 (0x29)
Format : RLE
Format/Info : Run-length encoding
Muxing mode : DVD-Video
Delay relative to video : 1s 960ms
Свернуть

"Скриншоты"

Изображение
Изображение
Изображение
Изображение
Изображение
Свернуть
Не в сети
Профиль  
Начать новую темуОтветить на тему  [ 1 сообщение ] 
Вы не можете начинать темы
Вы не можете отвечать на сообщения
Вы не можете редактировать свои сообщения
Вы не можете удалять свои сообщения