Правила форума

Здесь находятся раздачи, на которых не было полного источника (сида) более месяца.
Вы можете вернуть релиз в соответствующий раздел, для этого напишите нам в специальной теме и встаньте на раздачу.
Новые релизы, повторяющие релизы в архиве, повторами не считаются.
Начать новую темуОтветить на тему  [ Сообщений: 2 ] 
Сообщения
 Добавлено: 2011-01-17 13:39
Top-releaser
Аватара пользователя
Стаж: 6 лет 11 месяцев
Возраст: 45
Сообщений: 299
Спасибок: 4108
Лайков: 3
Киборг / Cyborg
«He's the first hero of the 21st century.»

Изображение

Год выпуска: 1989
Страна: США
Жанр: фантастика, боевик
Перевод: Профессиональный (многоголосый, закадровый), Авторский одноголосый (В. Дохалов, А. Гаврилов, В. Володарский)

Режиссер: Альберт Пьюн / Albert Pyun
Сценарий: Китти Чалмерс / Kitty Chalmers
Продюсер: Йорам Глобус / Yoram Globus, Менахем Голан / Menahem Golan, Том Карновски / Tom Karnowski
Оператор: Филип Алан Уотерс / Philip Alan Waters
Композитор: Кевин Бэссинсон / Kevin Bassinson

В ролях: Жан-Клод Ван Дамм (Gibson Rickenbacker,), Дебора Рихтер (Nady Simmons), Винсент Клин (Fender Tremolo), Алекс Дэниелс (Marshall Strat), Дейл Хэддон (Pearl Prophet), Блэйз Лунг (Furman Vux / Pirate / Bandit), Ральф Мёллер (Brick Bardo), Хейли Петерсон (Haley), Терри Батсон (Mary), Джексон 'Скала' Пинкни (Tytus / Pirate / Bandit), Джэнис Грейсер (Vorg), Роберт Пентз (Base / Pirate / Bandit)
Описание: Америка 21-го века, прозябая в социальной анархии и смертоносной чуме, вот-вот станет жертвой бурного воровского беспредела. Только Перл Профет, прекрасная полуженщина-полуробот, знает секрет создания спасительной вакцины.
Собирая компоненты, необходимые для спасения человечества, Перл попадает в плен к людоеду Флэшу Пайротсу, который замыслил использовать противоядие в личных целях и добиться господства над целым миром. Теперь только стальной кулак героя-меченосца Гибсона Рикенбакера может спасти ее, а заодно и все, что еще осталось от человечества.

Изображение
Бюджет: $2 000 000
Сборы в США: $10 166 459
Мировая премьера: 7 апреля 1989
Релиз на DVD: 12 марта 2009, «Синема Трейд»
Изображение

MPAA: Изображение - Лицам до 17 лет обязательно присутствие взрослого
Качество: HDTV, 1080i
Формат: MPEG-TS
Видео: MPEG-2 Video; 1920x1080 (16:9); 11748 Kbps; 29,970 fps; 0,189 bpp
Аудио №1: Russian; AC3; 48 KHz; 448 Kbps; CBR; 6 ch [Профессиональный (многоголосый, закадровый)]
Аудио №2: Russian; AC3; 48 KHz; 448 Kbps; CBR; 6 ch [Авторский одноголосый (В. Дохалов)]
Аудио №3: Russian; AC3; 48 KHz; 192 Kbps; CBR; 2 ch [Авторский одноголосый (А. Гаврилов)]
Аудио №4: Russian; AC3; 48 KHz; 192 Kbps; CBR; 2 ch [Авторский одноголосый (В. Володарский)]
Аудио №5: English; AC3; 48 KHz; 448 Kbps; CBR; 6 ch [Original]

Раздача группы:Изображение

"MediaInfo"

Полное имя : Cyborg.1989.MPEG-2.HDTV.1080i.[R.G.Daredevil].ts
Формат : MPEG-TS
Размер файла : 8,74 Гбайт
Продолжительность : 1 ч. 26 м.
Общий поток : 14,5 Мбит/сек
Максимальный общий битрейт : 35,5 Мбит/сек

Видео
Идентификатор : 4113 (0x1011)
Идентификатор меню : 1 (0x1)
Формат : MPEG Video
Версия формата : Version 2
Профиль формата : Main@High
Параметр BVOP формата : Да
Параметр матрицы формата : По умолчанию
Идентификатор кодека : 2
Продолжительность : 1 ч. 26 м.
Вид битрейта : Переменный
Битрейт : 12,0 Мбит/сек
Номинальный битрейт : 20,0 Мбит/сек
Ширина : 1920 пикс.
Высота : 1080 пикс.
Соотношение сторон : 16:9
Частота кадров : 29,970 кадр/сек
Стандарт вещания : Component
Цветовое пространство : YUV
Подвыборка цветности : 4:2:0
Битовая глубина : 8 бит
Метод сжатия : С потерями
Бит/(Пиксели*Кадры) : 0.193
Размер потока : 7,26 Гбайт (83%)

Аудио #1
Идентификатор : 4352 (0x1100)
Идентификатор меню : 1 (0x1)
Формат : AC-3
Формат/Информация : Audio Coding 3
Расширение режима : CM (complete main)
Идентификатор кодека : 129
Продолжительность : 1 ч. 26 м.
Вид битрейта : Постоянный
Битрейт : 448 Кбит/сек
Канал(ы) : 6 канала(ов)
Расположение каналов : Front: L C R, Side: L R, LFE
Частота : 48,0 КГц
Битовая глубина : 16 бит
Метод сжатия : С потерями
Размер потока : 277 Мбайт (3%)
Язык : Russian

Аудио #2
Идентификатор : 4353 (0x1101)
Идентификатор меню : 1 (0x1)
Формат : AC-3
Формат/Информация : Audio Coding 3
Расширение режима : CM (complete main)
Идентификатор кодека : 129
Продолжительность : 1 ч. 26 м.
Вид битрейта : Постоянный
Битрейт : 448 Кбит/сек
Канал(ы) : 6 канала(ов)
Расположение каналов : Front: L C R, Side: L R, LFE
Частота : 48,0 КГц
Битовая глубина : 16 бит
Метод сжатия : С потерями
Размер потока : 277 Мбайт (3%)
Язык : Russian

Аудио #3
Идентификатор : 4354 (0x1102)
Идентификатор меню : 1 (0x1)
Формат : AC-3
Формат/Информация : Audio Coding 3
Расширение режима : CM (complete main)
Идентификатор кодека : 129
Продолжительность : 1 ч. 26 м.
Вид битрейта : Постоянный
Битрейт : 192 Кбит/сек
Канал(ы) : 2 канала(ов)
Расположение каналов : Front: L R
Частота : 48,0 КГц
Битовая глубина : 16 бит
Метод сжатия : С потерями
Размер потока : 119 Мбайт (1%)
Язык : Russian

Аудио #4
Идентификатор : 4355 (0x1103)
Идентификатор меню : 1 (0x1)
Формат : AC-3
Формат/Информация : Audio Coding 3
Расширение режима : CM (complete main)
Идентификатор кодека : 129
Продолжительность : 1 ч. 26 м.
Вид битрейта : Постоянный
Битрейт : 192 Кбит/сек
Канал(ы) : 2 канала(ов)
Расположение каналов : Front: L R
Частота : 48,0 КГц
Битовая глубина : 16 бит
Метод сжатия : С потерями
Размер потока : 119 Мбайт (1%)
Язык : Russian

Аудио #5
Идентификатор : 4356 (0x1104)
Идентификатор меню : 1 (0x1)
Формат : AC-3
Формат/Информация : Audio Coding 3
Расширение режима : CM (complete main)
Идентификатор кодека : 129
Продолжительность : 1 ч. 26 м.
Вид битрейта : Постоянный
Битрейт : 448 Кбит/сек
Канал(ы) : 6 канала(ов)
Расположение каналов : Front: L C R, Side: L R, LFE
Частота : 48,0 КГц
Битовая глубина : 16 бит
Метод сжатия : С потерями
Размер потока : 277 Мбайт (3%)
Язык : English
Свернуть
"Скриншоты"

Изображение
Изображение
Изображение
Изображение
Изображение
Изображение
Изображение
Изображение
Изображение
Свернуть
"Знаете ли Вы, что..."
  • На американском телевидении этот фильм шел под названием «Властелины Вселенной 2: Киборг» (Masters of the Universe II: The Cyborg). Дело в том, что картина должна была стать продолжением телефильма «Властелины Вселенной» (Masters of the Universe) 1987 года. Уже был написан сценарий, но проект закрыли, а сценарий переписали для полнометражного кинофильма.
  • Имена главных героев картины – Фендер Тремоло, Перл Профет, Гибсон Рикенбейкер, Нади Симмонс, Маршалл Страт – были взяты на основе названий музыкальных инструментов или их производителей.
  • В 1993 и 1994 годах были сняты картины «Киборг 2» (Cyborg 2) и «Киборг 3: Утилизатор» (Cyborg 3: The Recycler), которые к фильму «Киборг» (Cyborg) никакого отношения не имеют.
  • Премьера фильма состоялась одновременно в 830 кинотеатрах, а сборы за уик-энд (7-9 апреля) составили $3 179 811, что в полтора раз превысило бюджет фильма.
Свернуть


Последний раз редактировалось VVVDDD 2011-01-17 20:19, всего редактировалось 1 раз.
Не в сети
Профиль  
 Добавлено: 2011-01-17 17:35 (спустя 3 часа)
Аватара пользователя
Стаж: 8 лет 10 месяцев
Сообщений: 2032
Спасибок: 53743
Лайков: 6
Размер скриншотов не совпадают с данным разрешением видео.
Укажите продолжительность фильма в теме.
Не в сети
Профиль  
Начать новую темуОтветить на тему  [ Сообщений: 2 ] 
Вы не можете начинать темы
Вы не можете отвечать на сообщения
Вы не можете редактировать свои сообщения
Вы не можете удалять свои сообщения