Правила форума

Здесь находятся раздачи, на которых не было полного источника (сида) более месяца.
Вы можете вернуть релиз в соответствующий раздел, для этого напишите нам в специальной теме и встаньте на раздачу.
Новые релизы, повторяющие релизы в архиве, повторами не считаются.
Начать новую темуОтветить на тему  [ Сообщений: 2 ] 
Сообщения
 Добавлено: 2011-12-27 16:46
Модератор релиз-группы
Аватара пользователя
Стаж: 9 лет 1 месяц
Возраст: 97
Сообщений: 11660
Спасибок: 6534
Лайков: 269
Клевый парень / Bowfinger

Изображение


Год выпуска: 1999
Страна: USA
Жанр: Комедия
Продолжительность: 01:32
Перевод: Профессиональный (многоголосый, закадровый)

Режиссер: Фрэнк Оз

В ролях: Стив Мартин, Эдди Мерфи, Хизер Грэм, Роберт Дауни-мл., Теренс Стамп, Кристин Барански

Описание: Бобби Боуфингер (Стив Мартин) - клевый парень! Не беда, что он абсолютно бестолковый режиссёр и самый большой проходимец в Голливуде. Бобби задумал снять настоящий боевик.
И не просто боевик, а блокбастер, который принесёт огромную кассу и немеркнущую славу.
Что же для этого потребуется?
Во-первых, - хороший сценарий! Сценарий у Бобби есть. И какой! В нём зловещие инопланетные твари опускаются на Землю в дождевых каплях и набрасываются на людей.
Во-вторых, - заполучить в свой фильм суперзвезду!
Причём, самого Кита Рэмзи (Эдди Мёрфи) - настоящего героя . Тогда, чтобы увидеть кумира в фильме Бобби, в кинотеатры ринутся легионы одержимых поклонников, размахивая толстыми кошельками. А потом можно преспокойно почивать на лаврах и раздавать автографы. Есть лишь одна маленькая проблема: Кит Рэмзи сниматься у Бобби не собирается. И тогда Боуфингер находит выход. Он будет снимать Кита Рэмзи камерой, создавая ситуации, соответствующие сценарию.


Изображение
Качество: HDTV
Формат: mkv
Видео кодек: H.264
Аудио кодек: AC3
Видео: 1920x1080i, 25 fps, ~7 118 kbs
Аудио: Русский: AC3, 6ch, 448 Kbps
скриншоты
Изображение

Изображение

Изображение
Свернуть
Mi
Format : Matroska
Format version : Version 2
File size : 4.96 GiB
Duration : 1h 32mn
Overall bit rate : 7 650 Kbps
Encoded date : UTC 2011-12-27 13:37:32
Writing application : mkvmerge v5.1.0 ('And so it goes') built on Nov 28 2011 23:58:28
Writing library : libebml v1.2.3 + libmatroska v1.3.0

Video
ID : 1
Format : AVC
Format/Info : Advanced Video Codec
Format profile : Main@L4.0
Format settings, CABAC : Yes
Format settings, ReFrames : 4 frames
Format settings, GOP : M=4, N=32
Codec ID : V_MPEG4/ISO/AVC
Duration : 1h 32mn
Bit rate : 7 050 Kbps
Width : 1 920 pixels
Height : 1 080 pixels
Display aspect ratio : 16:9
Frame rate : 50.000 fps
Original frame rate : 25.000 fps
Color space : YUV
Chroma subsampling : 4:2:0
Bit depth : 8 bits
Scan type : Interlaced
Scan order : Top Field First
Bits/(Pixel*Frame) : 0.068
Stream size : 4.57 GiB (92%)
Color primaries : BT.709-5, BT.1361, IEC 61966-2-4, SMPTE RP177
Transfer characteristics : BT.709-5, BT.1361
Matrix coefficients : BT.709-5, BT.1361, IEC 61966-2-4 709, SMPTE RP177

Audio
ID : 2
Format : AC-3
Format/Info : Audio Coding 3
Mode extension : CM (complete main)
Codec ID : A_AC3
Duration : 1h 32mn
Bit rate mode : Constant
Bit rate : 448 Kbps
Channel(s) : 6 channels
Channel positions : Front: L C R, Side: L R, LFE
Sampling rate : 48.0 KHz
Bit depth : 16 bits
Compression mode : Lossy
Delay relative to video : 137ms
Stream size : 297 MiB (6%)
Language : Russian

Свернуть
_________________
Изображение
Не в сети
Профиль  
 Добавлено: 2011-12-27 20:42 (спустя 3 часа)
Аватара пользователя
Стаж: 7 лет 2 месяца
Сообщений: 7167
Спасибок: 82016
Лайков: 2438
:co_ol:
Не в сети
Профиль  
Начать новую темуОтветить на тему  [ Сообщений: 2 ] 
Вы не можете начинать темы
Вы не можете отвечать на сообщения
Вы не можете редактировать свои сообщения
Вы не можете удалять свои сообщения