Правила форума

Здесь находятся раздачи, на которых не было полного источника (сида) более месяца.
Вы можете вернуть релиз в соответствующий раздел, для этого напишите нам в специальной теме и встаньте на раздачу.
Новые релизы, повторяющие релизы в архиве, повторами не считаются.
Начать новую темуОтветить на тему  [ 1 сообщение ] 
Сообщения
 Добавлено: 2011-11-12 14:34
Модератор релиз-группы
Аватара пользователя
Стаж: 7 лет 11 месяцев
Сообщений: 669
Спасибок: 4991
Лайков: 2
Ключ от всех дверей / The Skeleton Key


«Fearing Is Believing»



Изображение
Год выпуска: 2005
Страна: Изображение США, Изображение Германия Изображение
Жанр: ужасы, триллер, драма, детектив
Продолжительность:
01:43:57

Субтитры: Английский, Китайский, Датский, Голландский, Финский, Французский, Немецкий, Греческий, Итальянский, Японский, Корейский, Норвежский, Португальский, Испанский, Шведский, Тайский
Перевод: Профессиональный (полное дублирование)
Оригинальная аудиодорожка: Английский

Режиссер: Иэн Софтли
Сценарий: Эрен Крюгер
Продюсер: Дэниэл Бобкер, Майкл Шамберг, Стэйси Шер, Иэн Софтли, Клэйтон Таунсенд
Оператор: Дэниэл Майндел
Композитор: Эд Ширмёр

В ролях:
Кейт Хадсон (Caroline Ellis), Джина Роулендс (Violet Devereaux), Джон Хёрт (Ben Devereaux), Питер Сарсгаард (Luke Marshall), Джой Брайант (Jill), Максин Барнетт (Mama Cynthia), Фэнлони Р. Харрис (Hallie), Мэрион Цинсер (Bayou Woman), Денин Тайлер (Desk Nurse), Энн Далримпл (C.N.A.), Трула М. Маркус (Nurse Trula), Тоня Статен (Nurse Audrey)
Дублёры: Ольга Плетнева (Caroline Ellis) (Caroline Ellis), Светлана Старикова (Violet Devereaux) (Violet Devereaux), Виктор Петров (Ben Devereaux) (Ben Devereaux), Владимир Зайцев (Luke Marshall) (Luke Marshall)

Описание: 25-летняя Кэролайн Эллис устраивается работать сиделкой к пожилому инвалиду Бену Деверо, владельцу огромного особняка неподалеку от Луизианы. Его жена Вайолет вручает девушке универсальный ключ от всех дверей в доме.
Однажды Кэролайн обнаруживает секретную комнату, расположенную на чердаке с массой мистических предметов. Хозяйка утверждает, что вещи принадлежат бывшим владельцам, которые занимались черной магией. Вскоре Кэролайн становится свидетельницей довольно странных и необъяснимых событий и решает, во что бы то ни стало, разгадать секрет таинственной комнаты...


Изображение: 7.463 (14 462)
Изображение: 6.50 (32 921)

MPAA: Изображение - Детям до 13 лет просмотр не желателен

Доп. Информация

Бюджет: $43 000 000
Сборы в США: $47 907 715
Сборы в России: $2 139 306
Сборы в мире: $91 974 818
Мировая премьера: 29 июля 2005
Изображение Релиз на DVD: 14 октября 2008, «Мьюзик-Трейд»
Изображение Релиз на Blu-ray: 28 сентября 2010, «Юниверсал Пикчерс Рус»

Свернуть

Бонусы: Отсутствуют

Меню: Отсутствует

Тип релиза: Blu-ray BD-50 Dual-Layer Disc
Контейнер: BDMV

Видео: VC-1 Video / 30512 kbps / 1080p / 23,976 fps / 16:9 / Advanced Profile 3
Аудио 1: Английский DTS-HD Master Audio / 5.1 / 48 kHz / 4117 kbps / 24-bit (DTS Core: 5.1 / 48 kHz / 1509 kbps / 24-bit)
Аудио 2: Французский DTS Audio / 5.1 / 48 kHz / 768 kbps / 24-bit
Аудио 3: Немецкий DTS Audio / 5.1 / 48 kHz / 768 kbps / 24-bit
Аудио 4: Итальянский DTS Audio / 5.1 / 48 kHz / 768 kbps / 24-bit
Аудио 5: Японский DTS Audio / 5.1 / 48 kHz / 768 kbps / 24-bit
Аудио 6: Португальский DTS Audio / 5.1 / 48 kHz / 768 kbps / 24-bit
Аудио 7: Русский DTS Audio / 5.1 / 48 kHz / 768 kbps / 24-bit |Дубляж|
Аудио 8: Испанский DTS Audio / 5.1 / 48 kHz / 768 kbps / 24-bit
Аудио 9: Испанский DTS Audio / 5.1 / 48 kHz / 768 kbps / 24-bit



Знаете ли Вы, что...
  • На съёмках фильма происходило немало мистических вещей: отказывались работать камеры, члены съёмочной группы слышали шаги, когда рядом никого не было. В результате многие участники проекта стали носить с собой магические амулеты против сил вуду.
  • Кейт Хадсон шутит, что для неё главной причиной согласия на роль стало то, что её героине в фильме не приходится постоянно улыбаться.
Свернуть
BDInfo

Disc Title: The Skeleton Key 2005 1080p Blu-ray EUR VC-1 DTS HD-MA 5.1
Disc Size: 34 906 374 913 bytes
Protection: AACS
BD-Java: Yes
BDInfo: 0.5.2

Notes:

BDINFO HOME AND REPORTS SUBMISSION:
Cinema Squid
http://www.cinemasquid.com/Tools.aspx

INCLUDES FORUMS REPORT FOR:
Unofficial Blu-ray Audio and Video Specifications Thread
http://www.avsforum.com/avs-vb/showthread.php?t=760714
http://forum.blu-ray.com/showthread.php?t=3338

********************
PLAYLIST: 00800.MPLS
********************

<--- BEGIN FORUMS PASTE --->
Код:
Total Video
Title Codec Length Movie Size Disc Size Bitrate Bitrate Main Audio Track Secondary Audio Track
----- ------ ------- -------------- -------------- ------- ------- ------------------ ---------------------
00800.MPLS VC-1 1:43:57 34 196 791 296 34 906 374 913 43,86 30,51 DTS-HD Master 5.1 4117Kbps (48kHz/24-bit)
Код:
DISC INFO:

Disc Title: The Skeleton Key 2005 1080p Blu-ray EUR VC-1 DTS HD-MA 5.1
Disc Size: 34 906 374 913 bytes
Protection: AACS
BD-Java: Yes
BDInfo: 0.5.2

PLAYLIST REPORT:

Name: 00800.MPLS
Size: 34 196 791 296 bytes
Length: 1:43:57 (h:m:s)
Total Bitrate: 43,86 Mbps
Description:

VIDEO:

Codec Bitrate Description
----- ------- -----------
VC-1 Video 30512 kbps 1080p / 23,976 fps / 16:9 / Advanced Profile 3

AUDIO:

Codec Language Bitrate Description
----- -------- ------- -----------
DTS-HD Master Audio English 4117 kbps 5.1 / 48 kHz / 4117 kbps / 24-bit (DTS Core: 5.1 / 48 kHz / 1509 kbps / 24-bit)
DTS Audio French 768 kbps 5.1 / 48 kHz / 768 kbps / 24-bit
DTS Audio German 768 kbps 5.1 / 48 kHz / 768 kbps / 24-bit
DTS Audio Italian 768 kbps 5.1 / 48 kHz / 768 kbps / 24-bit
DTS Audio Japanese 768 kbps 5.1 / 48 kHz / 768 kbps / 24-bit
DTS Audio Portuguese 768 kbps 5.1 / 48 kHz / 768 kbps / 24-bit
DTS Audio Russian 768 kbps 5.1 / 48 kHz / 768 kbps / 24-bit
DTS Audio Spanish 768 kbps 5.1 / 48 kHz / 768 kbps / 24-bit
DTS Audio Spanish 768 kbps 5.1 / 48 kHz / 768 kbps / 24-bit

SUBTITLES:

Codec Language Bitrate Description
----- -------- ------- -----------
Presentation Graphics English 28,708 kbps
Presentation Graphics Chinese 20,822 kbps
Presentation Graphics Danish 26,150 kbps
Presentation Graphics Dutch 24,393 kbps
Presentation Graphics Finnish 25,135 kbps
Presentation Graphics French 24,858 kbps
Presentation Graphics French 0,423 kbps
Presentation Graphics German 27,197 kbps
Presentation Graphics German 0,285 kbps
Presentation Graphics Greek 27,037 kbps
Presentation Graphics Italian 24,029 kbps
Presentation Graphics Italian 0,258 kbps
Presentation Graphics Japanese 17,143 kbps
Presentation Graphics Japanese 0,633 kbps
Presentation Graphics Korean 17,281 kbps
Presentation Graphics Norwegian 25,599 kbps
Presentation Graphics Portuguese 26,304 kbps
Presentation Graphics Portuguese 25,142 kbps
Presentation Graphics Portuguese 0,054 kbps
Presentation Graphics Russian 0,070 kbps
Presentation Graphics Spanish 25,253 kbps
Presentation Graphics Spanish 24,283 kbps
Presentation Graphics Spanish 0,171 kbps
Presentation Graphics Spanish 0,096 kbps
Presentation Graphics Swedish 24,011 kbps
Presentation Graphics Thai 20,200 kbps

FILES:

Name Time In Length Size Total Bitrate
---- ------- ------ ---- -------------
00010.M2TS 0:00:00.000 1:43:57.231 34 196 791 296 43 862

CHAPTERS:

Number Time In Length Avg Video Rate Max 1-Sec Rate Max 1-Sec Time Max 5-Sec Rate Max 5-Sec Time Max 10Sec Rate Max 10Sec Time Avg Frame Size Max Frame Size Max Frame Time
------ ------- ------ -------------- -------------- -------------- -------------- -------------- -------------- -------------- -------------- -------------- --------------
1 0:00:00.000 0:04:58.256 30 419 kbps 47 070 kbps 00:02:38.116 37 732 kbps 00:01:11.905 36 265 kbps 00:03:18.907 158 567 bytes 535 710 bytes 00:00:54.220
2 0:04:58.256 0:08:43.231 30 438 kbps 49 660 kbps 00:07:58.895 38 565 kbps 00:07:55.183 35 488 kbps 00:07:38.166 158 690 bytes 535 158 bytes 00:05:52.351
3 0:13:41.487 0:05:49.349 30 672 kbps 48 975 kbps 00:14:33.539 38 572 kbps 00:14:29.869 36 306 kbps 00:14:25.489 159 910 bytes 471 664 bytes 00:19:30.836
4 0:19:30.836 0:04:32.647 30 190 kbps 40 664 kbps 00:19:55.694 36 497 kbps 00:19:38.177 35 644 kbps 00:19:37.009 157 399 bytes 453 469 bytes 00:19:47.603
5 0:24:03.483 0:04:16.839 32 807 kbps 42 917 kbps 00:24:38.226 37 154 kbps 00:26:36.845 35 335 kbps 00:26:31.548 171 039 bytes 391 411 bytes 00:24:42.063
6 0:28:20.323 0:03:44.223 31 672 kbps 45 865 kbps 00:28:29.916 39 604 kbps 00:28:26.955 36 676 kbps 00:28:50.478 165 125 bytes 521 128 bytes 00:28:55.817
7 0:32:04.547 0:05:25.408 31 917 kbps 44 518 kbps 00:35:23.663 38 176 kbps 00:35:20.827 36 153 kbps 00:35:37.927 166 401 bytes 394 880 bytes 00:34:07.837
8 0:37:29.956 0:04:18.383 31 720 kbps 44 827 kbps 00:38:47.158 36 666 kbps 00:38:22.466 34 291 kbps 00:38:57.835 165 375 bytes 334 919 bytes 00:40:00.106
9 0:41:48.339 0:07:05.550 29 546 kbps 44 192 kbps 00:42:40.891 37 886 kbps 00:42:02.853 35 637 kbps 00:42:21.080 154 039 bytes 658 364 bytes 00:43:14.008
10 0:48:53.889 0:06:23.674 31 325 kbps 44 549 kbps 00:50:11.049 38 181 kbps 00:50:59.473 35 954 kbps 00:53:31.917 163 316 bytes 443 968 bytes 00:51:33.673
11 0:55:17.564 0:05:00.508 31 302 kbps 46 903 kbps 00:58:35.845 38 542 kbps 01:00:08.855 37 322 kbps 01:00:08.062 163 195 bytes 398 465 bytes 00:55:20.775
12 1:00:18.072 0:01:51.694 32 509 kbps 40 664 kbps 01:01:08.289 36 810 kbps 01:01:55.670 35 501 kbps 01:01:55.461 169 487 bytes 395 590 bytes 01:00:46.893
13 1:02:09.767 0:05:22.363 30 851 kbps 43 422 kbps 01:04:17.645 36 191 kbps 01:04:17.603 35 592 kbps 01:04:16.143 160 844 bytes 460 879 bytes 01:04:47.300
14 1:07:32.131 0:06:51.411 31 909 kbps 43 567 kbps 01:09:42.511 37 767 kbps 01:08:45.371 35 976 kbps 01:08:42.660 166 357 bytes 516 581 bytes 01:08:43.494
15 1:14:23.542 0:04:24.389 33 599 kbps 43 180 kbps 01:18:15.065 38 444 kbps 01:18:13.522 36 088 kbps 01:18:08.558 175 170 bytes 383 819 bytes 01:16:54.151
16 1:18:47.931 0:03:22.994 32 791 kbps 43 599 kbps 01:21:12.200 39 271 kbps 01:21:10.907 37 195 kbps 01:21:05.902 170 956 bytes 436 429 bytes 01:21:15.704
17 1:22:10.926 0:10:32.631 31 553 kbps 47 652 kbps 01:22:20.226 36 176 kbps 01:26:26.848 34 929 kbps 01:26:02.198 164 504 bytes 452 780 bytes 01:25:22.200
18 1:32:43.558 0:02:45.498 31 704 kbps 41 440 kbps 01:32:52.984 37 383 kbps 01:32:52.108 35 707 kbps 01:33:15.464 165 288 bytes 361 167 bytes 01:35:29.056
19 1:35:29.056 0:02:00.578 31 193 kbps 39 702 kbps 01:35:32.977 36 544 kbps 01:35:29.056 35 481 kbps 01:35:29.056 162 628 bytes 535 386 bytes 01:37:29.635
20 1:37:29.635 0:06:27.595 18 178 kbps 43 214 kbps 01:37:31.428 36 634 kbps 01:37:29.635 34 564 kbps 01:37:41.230 94 783 bytes 492 375 bytes 01:37:30.636

STREAM DIAGNOSTICS:

File PID Type Codec Language Seconds Bitrate Bytes Packets
---- --- ---- ----- -------- -------------- -------------- ------------- -----
00010.M2TS 4113 (0x1011) 0xEA VC-1 6237,106 30 513 23 789 101 594 129 378 826
00010.M2TS 4352 (0x1100) 0x82 DTS jpn (Japanese) 6237,106 768 598 774 784 3 508 446
00010.M2TS 4353 (0x1101) 0x86 DTS-HD MA eng (English) 6237,106 4 117 3 209 881 600 18 418 260
00010.M2TS 4354 (0x1102) 0x82 DTS fra (French) 6237,106 768 598 774 784 3 508 446
00010.M2TS 4355 (0x1103) 0x82 DTS ita (Italian) 6237,106 768 598 774 784 3 508 446
00010.M2TS 4356 (0x1104) 0x82 DTS deu (German) 6237,106 768 598 774 784 3 508 446
00010.M2TS 4357 (0x1105) 0x82 DTS spa (Spanish) 6237,106 768 598 774 784 3 508 446
00010.M2TS 4358 (0x1106) 0x82 DTS por (Portuguese) 6237,106 768 598 774 784 3 508 446
00010.M2TS 4359 (0x1107) 0x82 DTS spa (Spanish) 6237,106 768 598 774 784 3 508 446
00010.M2TS 4360 (0x1108) 0x82 DTS rus (Russian) 6237,106 768 598 774 784 3 508 446
00010.M2TS 4608 (0x1200) 0x90 PGS jpn (Japanese) 6237,106 17 13 365 788 78 061
00010.M2TS 4609 (0x1201) 0x90 PGS eng (English) 6237,106 29 22 382 028 129 078
00010.M2TS 4610 (0x1202) 0x90 PGS fra (French) 6237,106 25 19 380 535 112 156
00010.M2TS 4611 (0x1203) 0x90 PGS ita (Italian) 6237,106 24 18 734 462 108 650
00010.M2TS 4612 (0x1204) 0x90 PGS deu (German) 6237,106 27 21 204 328 122 052
00010.M2TS 4613 (0x1205) 0x90 PGS spa (Spanish) 6237,106 25 19 688 832 113 823
00010.M2TS 4614 (0x1206) 0x90 PGS por (Portuguese) 6237,106 26 20 507 854 118 304
00010.M2TS 4615 (0x1207) 0x90 PGS spa (Spanish) 6237,106 24 18 932 309 109 715
00010.M2TS 4616 (0x1208) 0x90 PGS dan (Danish) 6237,106 26 20 387 587 117 606
00010.M2TS 4617 (0x1209) 0x90 PGS nld (Dutch) 6237,106 24 19 018 346 110 168
00010.M2TS 4618 (0x120A) 0x90 PGS fin (Finnish) 6237,106 25 19 596 604 113 348
00010.M2TS 4619 (0x120B) 0x90 PGS ell (Greek) 6237,106 27 21 079 346 121 381
00010.M2TS 4620 (0x120C) 0x90 PGS kor (Korean) 6237,106 17 13 473 291 80 258
00010.M2TS 4621 (0x120D) 0x90 PGS nor (Norwegian) 6237,106 26 19 958 038 115 291
00010.M2TS 4622 (0x120E) 0x90 PGS por (Portuguese) 6237,106 25 19 601 912 113 374
00010.M2TS 4623 (0x120F) 0x90 PGS swe (Swedish) 6237,106 24 18 720 208 108 587
00010.M2TS 4624 (0x1210) 0x90 PGS tha (Thai) 6237,106 20 15 749 376 92 551
00010.M2TS 4625 (0x1211) 0x90 PGS zho (Chinese) 6237,106 21 16 234 085 94 938
00010.M2TS 4626 (0x1212) 0x90 PGS jpn (Japanese) 6237,106 1 493 505 2 863
00010.M2TS 4627 (0x1213) 0x90 PGS fra (French) 6237,106 0 329 910 1 900
00010.M2TS 4628 (0x1214) 0x90 PGS ita (Italian) 6237,106 0 200 805 1 149
00010.M2TS 4629 (0x1215) 0x90 PGS deu (German) 6237,106 0 222 142 1 274
00010.M2TS 4630 (0x1216) 0x90 PGS spa (Spanish) 6237,106 0 133 527 772
00010.M2TS 4631 (0x1217) 0x90 PGS por (Portuguese) 6237,106 0 42 033 241
00010.M2TS 4632 (0x1218) 0x90 PGS spa (Spanish) 6237,106 0 74 536 432
00010.M2TS 4633 (0x1219) 0x90 PGS rus (Russian) 6237,106 0 54 627 324
<---- END FORUMS PASTE ---->

QUICK SUMMARY:

Disc Title: The Skeleton Key 2005 1080p Blu-ray EUR VC-1 DTS HD-MA 5.1
Disc Size: 34 906 374 913 bytes
Protection: AACS
BD-Java: Yes
Playlist: 00800.MPLS
Size: 34 196 791 296 bytes
Length: 1:43:57
Total Bitrate: 43,86 Mbps
Video: VC-1 Video / 30512 kbps / 1080p / 23,976 fps / 16:9 / Advanced Profile 3
Audio: English / DTS-HD Master Audio / 5.1 / 48 kHz / 4117 kbps / 24-bit (DTS Core: 5.1 / 48 kHz / 1509 kbps / 24-bit)
Audio: French / DTS Audio / 5.1 / 48 kHz / 768 kbps / 24-bit
Audio: German / DTS Audio / 5.1 / 48 kHz / 768 kbps / 24-bit
Audio: Italian / DTS Audio / 5.1 / 48 kHz / 768 kbps / 24-bit
Audio: Japanese / DTS Audio / 5.1 / 48 kHz / 768 kbps / 24-bit
Audio: Portuguese / DTS Audio / 5.1 / 48 kHz / 768 kbps / 24-bit
Audio: Russian / DTS Audio / 5.1 / 48 kHz / 768 kbps / 24-bit
Audio: Spanish / DTS Audio / 5.1 / 48 kHz / 768 kbps / 24-bit
Audio: Spanish / DTS Audio / 5.1 / 48 kHz / 768 kbps / 24-bit
Subtitle: English / 28,708 kbps
Subtitle: Chinese / 20,822 kbps
Subtitle: Danish / 26,150 kbps
Subtitle: Dutch / 24,393 kbps
Subtitle: Finnish / 25,135 kbps
Subtitle: French / 24,858 kbps
Subtitle: French / 0,423 kbps
Subtitle: German / 27,197 kbps
Subtitle: German / 0,285 kbps
Subtitle: Greek / 27,037 kbps
Subtitle: Italian / 24,029 kbps
Subtitle: Italian / 0,258 kbps
Subtitle: Japanese / 17,143 kbps
Subtitle: Japanese / 0,633 kbps
Subtitle: Korean / 17,281 kbps
Subtitle: Norwegian / 25,599 kbps
Subtitle: Portuguese / 26,304 kbps
Subtitle: Portuguese / 25,142 kbps
Subtitle: Portuguese / 0,054 kbps
Subtitle: Russian / 0,070 kbps
Subtitle: Spanish / 25,253 kbps
Subtitle: Spanish / 24,283 kbps
Subtitle: Spanish / 0,171 kbps
Subtitle: Spanish / 0,096 kbps
Subtitle: Swedish / 24,011 kbps
Subtitle: Thai / 20,200 kbps

********************
PLAYLIST: 00801.MPLS
********************

<--- BEGIN FORUMS PASTE --->
Код:
Total Video
Title Codec Length Movie Size Disc Size Bitrate Bitrate Main Audio Track Secondary Audio Track
----- ------ ------- -------------- -------------- ------- ------- ------------------ ---------------------
00801.MPLS VC-1 1:43:57 34 196 791 296 34 906 374 913 43,86 30,51 DTS-HD Master 5.1 4117Kbps (48kHz/24-bit)
Код:
DISC INFO:

Disc Title: The Skeleton Key 2005 1080p Blu-ray EUR VC-1 DTS HD-MA 5.1
Disc Size: 34 906 374 913 bytes
Protection: AACS
BD-Java: Yes
BDInfo: 0.5.2

PLAYLIST REPORT:

Name: 00801.MPLS
Size: 34 196 791 296 bytes
Length: 1:43:57 (h:m:s)
Total Bitrate: 43,86 Mbps
Description:

VIDEO:

Codec Bitrate Description
----- ------- -----------
VC-1 Video 30512 kbps 1080p / 23,976 fps / 16:9 / Advanced Profile 3

AUDIO:

Codec Language Bitrate Description
----- -------- ------- -----------
DTS-HD Master Audio English 4117 kbps 5.1 / 48 kHz / 4117 kbps / 24-bit (DTS Core: 5.1 / 48 kHz / 1509 kbps / 24-bit)
DTS Audio French 768 kbps 5.1 / 48 kHz / 768 kbps / 24-bit
DTS Audio German 768 kbps 5.1 / 48 kHz / 768 kbps / 24-bit
DTS Audio Italian 768 kbps 5.1 / 48 kHz / 768 kbps / 24-bit
DTS Audio Japanese 768 kbps 5.1 / 48 kHz / 768 kbps / 24-bit
DTS Audio Portuguese 768 kbps 5.1 / 48 kHz / 768 kbps / 24-bit
DTS Audio Russian 768 kbps 5.1 / 48 kHz / 768 kbps / 24-bit
DTS Audio Spanish 768 kbps 5.1 / 48 kHz / 768 kbps / 24-bit
DTS Audio Spanish 768 kbps 5.1 / 48 kHz / 768 kbps / 24-bit

SUBTITLES:

Codec Language Bitrate Description
----- -------- ------- -----------
Presentation Graphics English 28,708 kbps
Presentation Graphics Chinese 20,822 kbps
Presentation Graphics Danish 26,150 kbps
Presentation Graphics Dutch 24,393 kbps
Presentation Graphics Finnish 25,135 kbps
Presentation Graphics French 24,858 kbps
Presentation Graphics French 0,423 kbps
Presentation Graphics German 27,197 kbps
Presentation Graphics German 0,285 kbps
Presentation Graphics Greek 27,037 kbps
Presentation Graphics Italian 24,029 kbps
Presentation Graphics Italian 0,258 kbps
Presentation Graphics Japanese 17,143 kbps
Presentation Graphics Japanese 0,633 kbps
Presentation Graphics Korean 17,281 kbps
Presentation Graphics Norwegian 25,599 kbps
Presentation Graphics Portuguese 26,304 kbps
Presentation Graphics Portuguese 25,142 kbps
Presentation Graphics Portuguese 0,054 kbps
Presentation Graphics Russian 0,070 kbps
Presentation Graphics Spanish 25,253 kbps
Presentation Graphics Spanish 24,283 kbps
Presentation Graphics Spanish 0,171 kbps
Presentation Graphics Spanish 0,096 kbps
Presentation Graphics Swedish 24,011 kbps
Presentation Graphics Thai 20,200 kbps

FILES:

Name Time In Length Size Total Bitrate
---- ------- ------ ---- -------------
00010.M2TS 0:00:00.000 1:43:57.231 34 196 791 296 43 862

CHAPTERS:

Number Time In Length Avg Video Rate Max 1-Sec Rate Max 1-Sec Time Max 5-Sec Rate Max 5-Sec Time Max 10Sec Rate Max 10Sec Time Avg Frame Size Max Frame Size Max Frame Time
------ ------- ------ -------------- -------------- -------------- -------------- -------------- -------------- -------------- -------------- -------------- --------------
1 0:00:00.000 1:43:57.231 30 512 kbps 49 660 kbps 00:07:58.895 39 604 kbps 00:28:26.955 37 541 kbps 01:00:08.855 159 078 bytes 658 364 bytes 00:43:14.008

STREAM DIAGNOSTICS:

File PID Type Codec Language Seconds Bitrate Bytes Packets
---- --- ---- ----- -------- -------------- -------------- ------------- -----
00010.M2TS 4113 (0x1011) 0xEA VC-1 6237,106 30 513 23 789 101 594 129 378 826
00010.M2TS 4352 (0x1100) 0x82 DTS jpn (Japanese) 6237,106 768 598 774 784 3 508 446
00010.M2TS 4353 (0x1101) 0x86 DTS-HD MA eng (English) 6237,106 4 117 3 209 881 600 18 418 260
00010.M2TS 4354 (0x1102) 0x82 DTS fra (French) 6237,106 768 598 774 784 3 508 446
00010.M2TS 4355 (0x1103) 0x82 DTS ita (Italian) 6237,106 768 598 774 784 3 508 446
00010.M2TS 4356 (0x1104) 0x82 DTS deu (German) 6237,106 768 598 774 784 3 508 446
00010.M2TS 4357 (0x1105) 0x82 DTS spa (Spanish) 6237,106 768 598 774 784 3 508 446
00010.M2TS 4358 (0x1106) 0x82 DTS por (Portuguese) 6237,106 768 598 774 784 3 508 446
00010.M2TS 4359 (0x1107) 0x82 DTS spa (Spanish) 6237,106 768 598 774 784 3 508 446
00010.M2TS 4360 (0x1108) 0x82 DTS rus (Russian) 6237,106 768 598 774 784 3 508 446
00010.M2TS 4608 (0x1200) 0x90 PGS jpn (Japanese) 6237,106 17 13 365 788 78 061
00010.M2TS 4609 (0x1201) 0x90 PGS eng (English) 6237,106 29 22 382 028 129 078
00010.M2TS 4610 (0x1202) 0x90 PGS fra (French) 6237,106 25 19 380 535 112 156
00010.M2TS 4611 (0x1203) 0x90 PGS ita (Italian) 6237,106 24 18 734 462 108 650
00010.M2TS 4612 (0x1204) 0x90 PGS deu (German) 6237,106 27 21 204 328 122 052
00010.M2TS 4613 (0x1205) 0x90 PGS spa (Spanish) 6237,106 25 19 688 832 113 823
00010.M2TS 4614 (0x1206) 0x90 PGS por (Portuguese) 6237,106 26 20 507 854 118 304
00010.M2TS 4615 (0x1207) 0x90 PGS spa (Spanish) 6237,106 24 18 932 309 109 715
00010.M2TS 4616 (0x1208) 0x90 PGS dan (Danish) 6237,106 26 20 387 587 117 606
00010.M2TS 4617 (0x1209) 0x90 PGS nld (Dutch) 6237,106 24 19 018 346 110 168
00010.M2TS 4618 (0x120A) 0x90 PGS fin (Finnish) 6237,106 25 19 596 604 113 348
00010.M2TS 4619 (0x120B) 0x90 PGS ell (Greek) 6237,106 27 21 079 346 121 381
00010.M2TS 4620 (0x120C) 0x90 PGS kor (Korean) 6237,106 17 13 473 291 80 258
00010.M2TS 4621 (0x120D) 0x90 PGS nor (Norwegian) 6237,106 26 19 958 038 115 291
00010.M2TS 4622 (0x120E) 0x90 PGS por (Portuguese) 6237,106 25 19 601 912 113 374
00010.M2TS 4623 (0x120F) 0x90 PGS swe (Swedish) 6237,106 24 18 720 208 108 587
00010.M2TS 4624 (0x1210) 0x90 PGS tha (Thai) 6237,106 20 15 749 376 92 551
00010.M2TS 4625 (0x1211) 0x90 PGS zho (Chinese) 6237,106 21 16 234 085 94 938
00010.M2TS 4626 (0x1212) 0x90 PGS jpn (Japanese) 6237,106 1 493 505 2 863
00010.M2TS 4627 (0x1213) 0x90 PGS fra (French) 6237,106 0 329 910 1 900
00010.M2TS 4628 (0x1214) 0x90 PGS ita (Italian) 6237,106 0 200 805 1 149
00010.M2TS 4629 (0x1215) 0x90 PGS deu (German) 6237,106 0 222 142 1 274
00010.M2TS 4630 (0x1216) 0x90 PGS spa (Spanish) 6237,106 0 133 527 772
00010.M2TS 4631 (0x1217) 0x90 PGS por (Portuguese) 6237,106 0 42 033 241
00010.M2TS 4632 (0x1218) 0x90 PGS spa (Spanish) 6237,106 0 74 536 432
00010.M2TS 4633 (0x1219) 0x90 PGS rus (Russian) 6237,106 0 54 627 324
<---- END FORUMS PASTE ---->

QUICK SUMMARY:

Disc Title: The Skeleton Key 2005 1080p Blu-ray EUR VC-1 DTS HD-MA 5.1
Disc Size: 34 906 374 913 bytes
Protection: AACS
BD-Java: Yes
Playlist: 00801.MPLS
Size: 34 196 791 296 bytes
Length: 1:43:57
Total Bitrate: 43,86 Mbps
Video: VC-1 Video / 30512 kbps / 1080p / 23,976 fps / 16:9 / Advanced Profile 3
Audio: English / DTS-HD Master Audio / 5.1 / 48 kHz / 4117 kbps / 24-bit (DTS Core: 5.1 / 48 kHz / 1509 kbps / 24-bit)
Audio: French / DTS Audio / 5.1 / 48 kHz / 768 kbps / 24-bit
Audio: German / DTS Audio / 5.1 / 48 kHz / 768 kbps / 24-bit
Audio: Italian / DTS Audio / 5.1 / 48 kHz / 768 kbps / 24-bit
Audio: Japanese / DTS Audio / 5.1 / 48 kHz / 768 kbps / 24-bit
Audio: Portuguese / DTS Audio / 5.1 / 48 kHz / 768 kbps / 24-bit
Audio: Russian / DTS Audio / 5.1 / 48 kHz / 768 kbps / 24-bit
Audio: Spanish / DTS Audio / 5.1 / 48 kHz / 768 kbps / 24-bit
Audio: Spanish / DTS Audio / 5.1 / 48 kHz / 768 kbps / 24-bit
Subtitle: English / 28,708 kbps
Subtitle: Chinese / 20,822 kbps
Subtitle: Danish / 26,150 kbps
Subtitle: Dutch / 24,393 kbps
Subtitle: Finnish / 25,135 kbps
Subtitle: French / 24,858 kbps
Subtitle: French / 0,423 kbps
Subtitle: German / 27,197 kbps
Subtitle: German / 0,285 kbps
Subtitle: Greek / 27,037 kbps
Subtitle: Italian / 24,029 kbps
Subtitle: Italian / 0,258 kbps
Subtitle: Japanese / 17,143 kbps
Subtitle: Japanese / 0,633 kbps
Subtitle: Korean / 17,281 kbps
Subtitle: Norwegian / 25,599 kbps
Subtitle: Portuguese / 26,304 kbps
Subtitle: Portuguese / 25,142 kbps
Subtitle: Portuguese / 0,054 kbps
Subtitle: Russian / 0,070 kbps
Subtitle: Spanish / 25,253 kbps
Subtitle: Spanish / 24,283 kbps
Subtitle: Spanish / 0,171 kbps
Subtitle: Spanish / 0,096 kbps
Subtitle: Swedish / 24,011 kbps
Subtitle: Thai / 20,200 kbps

********************
PLAYLIST: 00849.MPLS
********************

<--- BEGIN FORUMS PASTE --->
Код:
Total Video
Title Codec Length Movie Size Disc Size Bitrate Bitrate Main Audio Track Secondary Audio Track
----- ------ ------- -------------- -------------- ------- ------- ------------------ ---------------------
00849.MPLS VC-1 1:43:57 34 196 791 296 34 906 374 913 43,86 30,51 DTS-HD Master 5.1 4117Kbps (48kHz/24-bit)
Код:
DISC INFO:

Disc Title: The Skeleton Key 2005 1080p Blu-ray EUR VC-1 DTS HD-MA 5.1
Disc Size: 34 906 374 913 bytes
Protection: AACS
BD-Java: Yes
BDInfo: 0.5.2

PLAYLIST REPORT:

Name: 00849.MPLS
Size: 34 196 791 296 bytes
Length: 1:43:57 (h:m:s)
Total Bitrate: 43,86 Mbps
Description:

VIDEO:

Codec Bitrate Description
----- ------- -----------
VC-1 Video 30512 kbps 1080p / 23,976 fps / 16:9 / Advanced Profile 3

AUDIO:

Codec Language Bitrate Description
----- -------- ------- -----------
DTS-HD Master Audio English 4117 kbps 5.1 / 48 kHz / 4117 kbps / 24-bit (DTS Core: 5.1 / 48 kHz / 1509 kbps / 24-bit)
DTS Audio French 768 kbps 5.1 / 48 kHz / 768 kbps / 24-bit
DTS Audio German 768 kbps 5.1 / 48 kHz / 768 kbps / 24-bit
DTS Audio Italian 768 kbps 5.1 / 48 kHz / 768 kbps / 24-bit
DTS Audio Japanese 768 kbps 5.1 / 48 kHz / 768 kbps / 24-bit
DTS Audio Portuguese 768 kbps 5.1 / 48 kHz / 768 kbps / 24-bit
DTS Audio Russian 768 kbps 5.1 / 48 kHz / 768 kbps / 24-bit
DTS Audio Spanish 768 kbps 5.1 / 48 kHz / 768 kbps / 24-bit
DTS Audio Spanish 768 kbps 5.1 / 48 kHz / 768 kbps / 24-bit

SUBTITLES:

Codec Language Bitrate Description
----- -------- ------- -----------
Presentation Graphics English 28,708 kbps
Presentation Graphics Chinese 20,822 kbps
Presentation Graphics Danish 26,150 kbps
Presentation Graphics Dutch 24,393 kbps
Presentation Graphics Finnish 25,135 kbps
Presentation Graphics French 24,858 kbps
Presentation Graphics French 0,423 kbps
Presentation Graphics German 27,197 kbps
Presentation Graphics German 0,285 kbps
Presentation Graphics Greek 27,037 kbps
Presentation Graphics Italian 24,029 kbps
Presentation Graphics Italian 0,258 kbps
Presentation Graphics Japanese 17,143 kbps
Presentation Graphics Japanese 0,633 kbps
Presentation Graphics Korean 17,281 kbps
Presentation Graphics Norwegian 25,599 kbps
Presentation Graphics Portuguese 26,304 kbps
Presentation Graphics Portuguese 25,142 kbps
Presentation Graphics Portuguese 0,054 kbps
Presentation Graphics Russian 0,070 kbps
Presentation Graphics Spanish 25,253 kbps
Presentation Graphics Spanish 24,283 kbps
Presentation Graphics Spanish 0,171 kbps
Presentation Graphics Spanish 0,096 kbps
Presentation Graphics Swedish 24,011 kbps
Presentation Graphics Thai 20,200 kbps

FILES:

Name Time In Length Size Total Bitrate
---- ------- ------ ---- -------------
00010.M2TS 0:00:00.000 1:43:57.231 34 196 791 296 43 862

CHAPTERS:

Number Time In Length Avg Video Rate Max 1-Sec Rate Max 1-Sec Time Max 5-Sec Rate Max 5-Sec Time Max 10Sec Rate Max 10Sec Time Avg Frame Size Max Frame Size Max Frame Time
------ ------- ------ -------------- -------------- -------------- -------------- -------------- -------------- -------------- -------------- -------------- --------------
1 0:00:00.000 0:04:58.256 30 419 kbps 47 070 kbps 00:02:38.116 37 732 kbps 00:01:11.905 36 265 kbps 00:03:18.907 158 567 bytes 535 710 bytes 00:00:54.220
2 0:04:58.256 0:08:43.231 30 438 kbps 49 660 kbps 00:07:58.895 38 565 kbps 00:07:55.183 35 488 kbps 00:07:38.166 158 690 bytes 535 158 bytes 00:05:52.351
3 0:13:41.487 0:05:49.349 30 672 kbps 48 975 kbps 00:14:33.539 38 572 kbps 00:14:29.869 36 306 kbps 00:14:25.489 159 910 bytes 471 664 bytes 00:19:30.836
4 0:19:30.836 0:04:32.647 30 190 kbps 40 664 kbps 00:19:55.694 36 497 kbps 00:19:38.177 35 644 kbps 00:19:37.009 157 399 bytes 453 469 bytes 00:19:47.603
5 0:24:03.483 0:04:16.839 32 807 kbps 42 917 kbps 00:24:38.226 37 154 kbps 00:26:36.845 35 335 kbps 00:26:31.548 171 039 bytes 391 411 bytes 00:24:42.063
6 0:28:20.323 0:03:44.223 31 672 kbps 45 865 kbps 00:28:29.916 39 604 kbps 00:28:26.955 36 676 kbps 00:28:50.478 165 125 bytes 521 128 bytes 00:28:55.817
7 0:32:04.547 0:05:25.408 31 917 kbps 44 518 kbps 00:35:23.663 38 176 kbps 00:35:20.827 36 153 kbps 00:35:37.927 166 401 bytes 394 880 bytes 00:34:07.837
8 0:37:29.956 0:04:18.383 31 720 kbps 44 827 kbps 00:38:47.158 36 666 kbps 00:38:22.466 34 291 kbps 00:38:57.835 165 375 bytes 334 919 bytes 00:40:00.106
9 0:41:48.339 0:07:05.550 29 546 kbps 44 192 kbps 00:42:40.891 37 886 kbps 00:42:02.853 35 637 kbps 00:42:21.080 154 039 bytes 658 364 bytes 00:43:14.008
10 0:48:53.889 0:06:23.674 31 325 kbps 44 549 kbps 00:50:11.049 38 181 kbps 00:50:59.473 35 954 kbps 00:53:31.917 163 316 bytes 443 968 bytes 00:51:33.673
11 0:55:17.564 0:05:00.508 31 302 kbps 46 903 kbps 00:58:35.845 38 542 kbps 01:00:08.855 37 322 kbps 01:00:08.062 163 195 bytes 398 465 bytes 00:55:20.775
12 1:00:18.072 0:01:51.694 32 509 kbps 40 664 kbps 01:01:08.289 36 810 kbps 01:01:55.670 35 501 kbps 01:01:55.461 169 487 bytes 395 590 bytes 01:00:46.893
13 1:02:09.767 0:05:22.363 30 851 kbps 43 422 kbps 01:04:17.645 36 191 kbps 01:04:17.603 35 592 kbps 01:04:16.143 160 844 bytes 460 879 bytes 01:04:47.300
14 1:07:32.131 0:06:51.411 31 909 kbps 43 567 kbps 01:09:42.511 37 767 kbps 01:08:45.371 35 976 kbps 01:08:42.660 166 357 bytes 516 581 bytes 01:08:43.494
15 1:14:23.542 0:04:24.389 33 599 kbps 43 180 kbps 01:18:15.065 38 444 kbps 01:18:13.522 36 088 kbps 01:18:08.558 175 170 bytes 383 819 bytes 01:16:54.151
16 1:18:47.931 0:03:22.994 32 791 kbps 43 599 kbps 01:21:12.200 39 271 kbps 01:21:10.907 37 195 kbps 01:21:05.902 170 956 bytes 436 429 bytes 01:21:15.704
17 1:22:10.926 0:10:32.631 31 553 kbps 47 652 kbps 01:22:20.226 36 176 kbps 01:26:26.848 34 929 kbps 01:26:02.198 164 504 bytes 452 780 bytes 01:25:22.200
18 1:32:43.558 0:02:45.498 31 704 kbps 41 440 kbps 01:32:52.984 37 383 kbps 01:32:52.108 35 707 kbps 01:33:15.464 165 288 bytes 361 167 bytes 01:35:29.056
19 1:35:29.056 0:02:00.578 31 193 kbps 39 702 kbps 01:35:32.977 36 544 kbps 01:35:29.056 35 481 kbps 01:35:29.056 162 628 bytes 535 386 bytes 01:37:29.635
20 1:37:29.635 0:06:27.595 18 178 kbps 43 214 kbps 01:37:31.428 36 634 kbps 01:37:29.635 34 564 kbps 01:37:41.230 94 783 bytes 492 375 bytes 01:37:30.636

STREAM DIAGNOSTICS:

File PID Type Codec Language Seconds Bitrate Bytes Packets
---- --- ---- ----- -------- -------------- -------------- ------------- -----
00010.M2TS 4113 (0x1011) 0xEA VC-1 6237,106 30 513 23 789 101 594 129 378 826
00010.M2TS 4352 (0x1100) 0x82 DTS jpn (Japanese) 6237,106 768 598 774 784 3 508 446
00010.M2TS 4353 (0x1101) 0x86 DTS-HD MA eng (English) 6237,106 4 117 3 209 881 600 18 418 260
00010.M2TS 4354 (0x1102) 0x82 DTS fra (French) 6237,106 768 598 774 784 3 508 446
00010.M2TS 4355 (0x1103) 0x82 DTS ita (Italian) 6237,106 768 598 774 784 3 508 446
00010.M2TS 4356 (0x1104) 0x82 DTS deu (German) 6237,106 768 598 774 784 3 508 446
00010.M2TS 4357 (0x1105) 0x82 DTS spa (Spanish) 6237,106 768 598 774 784 3 508 446
00010.M2TS 4358 (0x1106) 0x82 DTS por (Portuguese) 6237,106 768 598 774 784 3 508 446
00010.M2TS 4359 (0x1107) 0x82 DTS spa (Spanish) 6237,106 768 598 774 784 3 508 446
00010.M2TS 4360 (0x1108) 0x82 DTS rus (Russian) 6237,106 768 598 774 784 3 508 446
00010.M2TS 4608 (0x1200) 0x90 PGS jpn (Japanese) 6237,106 17 13 365 788 78 061
00010.M2TS 4609 (0x1201) 0x90 PGS eng (English) 6237,106 29 22 382 028 129 078
00010.M2TS 4610 (0x1202) 0x90 PGS fra (French) 6237,106 25 19 380 535 112 156
00010.M2TS 4611 (0x1203) 0x90 PGS ita (Italian) 6237,106 24 18 734 462 108 650
00010.M2TS 4612 (0x1204) 0x90 PGS deu (German) 6237,106 27 21 204 328 122 052
00010.M2TS 4613 (0x1205) 0x90 PGS spa (Spanish) 6237,106 25 19 688 832 113 823
00010.M2TS 4614 (0x1206) 0x90 PGS por (Portuguese) 6237,106 26 20 507 854 118 304
00010.M2TS 4615 (0x1207) 0x90 PGS spa (Spanish) 6237,106 24 18 932 309 109 715
00010.M2TS 4616 (0x1208) 0x90 PGS dan (Danish) 6237,106 26 20 387 587 117 606
00010.M2TS 4617 (0x1209) 0x90 PGS nld (Dutch) 6237,106 24 19 018 346 110 168
00010.M2TS 4618 (0x120A) 0x90 PGS fin (Finnish) 6237,106 25 19 596 604 113 348
00010.M2TS 4619 (0x120B) 0x90 PGS ell (Greek) 6237,106 27 21 079 346 121 381
00010.M2TS 4620 (0x120C) 0x90 PGS kor (Korean) 6237,106 17 13 473 291 80 258
00010.M2TS 4621 (0x120D) 0x90 PGS nor (Norwegian) 6237,106 26 19 958 038 115 291
00010.M2TS 4622 (0x120E) 0x90 PGS por (Portuguese) 6237,106 25 19 601 912 113 374
00010.M2TS 4623 (0x120F) 0x90 PGS swe (Swedish) 6237,106 24 18 720 208 108 587
00010.M2TS 4624 (0x1210) 0x90 PGS tha (Thai) 6237,106 20 15 749 376 92 551
00010.M2TS 4625 (0x1211) 0x90 PGS zho (Chinese) 6237,106 21 16 234 085 94 938
00010.M2TS 4626 (0x1212) 0x90 PGS jpn (Japanese) 6237,106 1 493 505 2 863
00010.M2TS 4627 (0x1213) 0x90 PGS fra (French) 6237,106 0 329 910 1 900
00010.M2TS 4628 (0x1214) 0x90 PGS ita (Italian) 6237,106 0 200 805 1 149
00010.M2TS 4629 (0x1215) 0x90 PGS deu (German) 6237,106 0 222 142 1 274
00010.M2TS 4630 (0x1216) 0x90 PGS spa (Spanish) 6237,106 0 133 527 772
00010.M2TS 4631 (0x1217) 0x90 PGS por (Portuguese) 6237,106 0 42 033 241
00010.M2TS 4632 (0x1218) 0x90 PGS spa (Spanish) 6237,106 0 74 536 432
00010.M2TS 4633 (0x1219) 0x90 PGS rus (Russian) 6237,106 0 54 627 324
<---- END FORUMS PASTE ---->

QUICK SUMMARY:

Disc Title: The Skeleton Key 2005 1080p Blu-ray EUR VC-1 DTS HD-MA 5.1
Disc Size: 34 906 374 913 bytes
Protection: AACS
BD-Java: Yes
Playlist: 00849.MPLS
Size: 34 196 791 296 bytes
Length: 1:43:57
Total Bitrate: 43,86 Mbps
Video: VC-1 Video / 30512 kbps / 1080p / 23,976 fps / 16:9 / Advanced Profile 3
Audio: English / DTS-HD Master Audio / 5.1 / 48 kHz / 4117 kbps / 24-bit (DTS Core: 5.1 / 48 kHz / 1509 kbps / 24-bit)
Audio: French / DTS Audio / 5.1 / 48 kHz / 768 kbps / 24-bit
Audio: German / DTS Audio / 5.1 / 48 kHz / 768 kbps / 24-bit
Audio: Italian / DTS Audio / 5.1 / 48 kHz / 768 kbps / 24-bit
Audio: Japanese / DTS Audio / 5.1 / 48 kHz / 768 kbps / 24-bit
Audio: Portuguese / DTS Audio / 5.1 / 48 kHz / 768 kbps / 24-bit
Audio: Russian / DTS Audio / 5.1 / 48 kHz / 768 kbps / 24-bit
Audio: Spanish / DTS Audio / 5.1 / 48 kHz / 768 kbps / 24-bit
Audio: Spanish / DTS Audio / 5.1 / 48 kHz / 768 kbps / 24-bit
Subtitle: English / 28,708 kbps
Subtitle: Chinese / 20,822 kbps
Subtitle: Danish / 26,150 kbps
Subtitle: Dutch / 24,393 kbps
Subtitle: Finnish / 25,135 kbps
Subtitle: French / 24,858 kbps
Subtitle: French / 0,423 kbps
Subtitle: German / 27,197 kbps
Subtitle: German / 0,285 kbps
Subtitle: Greek / 27,037 kbps
Subtitle: Italian / 24,029 kbps
Subtitle: Italian / 0,258 kbps
Subtitle: Japanese / 17,143 kbps
Subtitle: Japanese / 0,633 kbps
Subtitle: Korean / 17,281 kbps
Subtitle: Norwegian / 25,599 kbps
Subtitle: Portuguese / 26,304 kbps
Subtitle: Portuguese / 25,142 kbps
Subtitle: Portuguese / 0,054 kbps
Subtitle: Russian / 0,070 kbps
Subtitle: Spanish / 25,253 kbps
Subtitle: Spanish / 24,283 kbps
Subtitle: Spanish / 0,171 kbps
Subtitle: Spanish / 0,096 kbps
Subtitle: Swedish / 24,011 kbps
Subtitle: Thai / 20,200 kbps

********************
PLAYLIST: 00021.MPLS
********************

<--- BEGIN FORUMS PASTE --->
Код:
Total Video
Title Codec Length Movie Size Disc Size Bitrate Bitrate Main Audio Track Secondary Audio Track
----- ------ ------- -------------- -------------- ------- ------- ------------------ ---------------------
00021.MPLS VC-1 0:01:05 142 927 872 34 906 374 913 17,44 15,95 DD AC3 5.1 640Kbps
Код:
DISC INFO:

Disc Title: The Skeleton Key 2005 1080p Blu-ray EUR VC-1 DTS HD-MA 5.1
Disc Size: 34 906 374 913 bytes
Protection: AACS
BD-Java: Yes
BDInfo: 0.5.2

PLAYLIST REPORT:

Name: 00021.MPLS
Size: 142 927 872 bytes
Length: 0:01:05 (h:m:s)
Total Bitrate: 17,44 Mbps
Description:

VIDEO:

Codec Bitrate Description
----- ------- -----------
VC-1 Video 15951 kbps 1080p / 23,976 fps / 16:9 / Advanced Profile 3

AUDIO:

Codec Language Bitrate Description
----- -------- ------- -----------
Dolby Digital Audio English 640 kbps 5.1 / 48 kHz / 640 kbps

FILES:

Name Time In Length Size Total Bitrate
---- ------- ------ ---- -------------
00012.M2TS 0:00:00.000 0:01:05.565 142 927 872 17 439

CHAPTERS:

Number Time In Length Avg Video Rate Max 1-Sec Rate Max 1-Sec Time Max 5-Sec Rate Max 5-Sec Time Max 10Sec Rate Max 10Sec Time Avg Frame Size Max Frame Size Max Frame Time
------ ------- ------ -------------- -------------- -------------- -------------- -------------- -------------- -------------- -------------- -------------- --------------
1 0:00:00.000 0:01:05.565 15 951 kbps 25 024 kbps 00:00:00.250 20 821 kbps 00:00:00.250 18 738 kbps 00:00:00.250 83 164 bytes 214 913 bytes 00:00:03.003

STREAM DIAGNOSTICS:

File PID Type Codec Language Seconds Bitrate Bytes Packets
---- --- ---- ----- -------- -------------- -------------- ------------- -----
00012.M2TS 4113 (0x1011) 0xEA VC-1 65,440 15 982 130 733 468 711 455
00012.M2TS 4352 (0x1100) 0x81 AC3 eng (English) 65,440 641 5 245 440 30 735
<---- END FORUMS PASTE ---->

QUICK SUMMARY:

Disc Title: The Skeleton Key 2005 1080p Blu-ray EUR VC-1 DTS HD-MA 5.1
Disc Size: 34 906 374 913 bytes
Protection: AACS
BD-Java: Yes
Playlist: 00021.MPLS
Size: 142 927 872 bytes
Length: 0:01:05
Total Bitrate: 17,44 Mbps
Video: VC-1 Video / 15951 kbps / 1080p / 23,976 fps / 16:9 / Advanced Profile 3
Audio: English / Dolby Digital Audio / 5.1 / 48 kHz / 640 kbps

********************
PLAYLIST: 00022.MPLS
********************

<--- BEGIN FORUMS PASTE --->
Код:
Total Video
Title Codec Length Movie Size Disc Size Bitrate Bitrate Main Audio Track Secondary Audio Track
----- ------ ------- -------------- -------------- ------- ------- ------------------ ---------------------
00022.MPLS VC-1 0:01:00 131 162 112 34 906 374 913 17,47 15,98 DD AC3 5.1 640Kbps
Код:
DISC INFO:

Disc Title: The Skeleton Key 2005 1080p Blu-ray EUR VC-1 DTS HD-MA 5.1
Disc Size: 34 906 374 913 bytes
Protection: AACS
BD-Java: Yes
BDInfo: 0.5.2

PLAYLIST REPORT:

Name: 00022.MPLS
Size: 131 162 112 bytes
Length: 0:01:00 (h:m:s)
Total Bitrate: 17,47 Mbps
Description:

VIDEO:

Codec Bitrate Description
----- ------- -----------
VC-1 Video 15982 kbps 1080p / 23,976 fps / 16:9 / Advanced Profile 3

AUDIO:

Codec Language Bitrate Description
----- -------- ------- -----------
Dolby Digital Audio English 640 kbps 5.1 / 48 kHz / 640 kbps

FILES:

Name Time In Length Size Total Bitrate
---- ------- ------ ---- -------------
00013.M2TS 0:00:00.000 0:01:00.060 131 162 112 17 471

CHAPTERS:

Number Time In Length Avg Video Rate Max 1-Sec Rate Max 1-Sec Time Max 5-Sec Rate Max 5-Sec Time Max 10Sec Rate Max 10Sec Time Avg Frame Size Max Frame Size Max Frame Time
------ ------- ------ -------------- -------------- -------------- -------------- -------------- -------------- -------------- -------------- -------------- --------------
1 0:00:00.000 0:01:00.060 15 982 kbps 20 207 kbps 00:00:13.555 16 981 kbps 00:00:43.376 16 749 kbps 00:00:13.513 83 322 bytes 216 870 bytes 00:00:04.838

STREAM DIAGNOSTICS:

File PID Type Codec Language Seconds Bitrate Bytes Packets
---- --- ---- ----- -------- -------------- -------------- ------------- -----
00013.M2TS 4113 (0x1011) 0xEA VC-1 59,935 16 015 119 983 601 652 966
00013.M2TS 4352 (0x1100) 0x81 AC3 eng (English) 59,935 641 4 805 120 28 155
<---- END FORUMS PASTE ---->

QUICK SUMMARY:

Disc Title: The Skeleton Key 2005 1080p Blu-ray EUR VC-1 DTS HD-MA 5.1
Disc Size: 34 906 374 913 bytes
Protection: AACS
BD-Java: Yes
Playlist: 00022.MPLS
Size: 131 162 112 bytes
Length: 0:01:00
Total Bitrate: 17,47 Mbps
Video: VC-1 Video / 15982 kbps / 1080p / 23,976 fps / 16:9 / Advanced Profile 3
Audio: English / Dolby Digital Audio / 5.1 / 48 kHz / 640 kbps

********************
PLAYLIST: 00065.MPLS
********************

<--- BEGIN FORUMS PASTE --->
Код:
Total Video
Title Codec Length Movie Size Disc Size Bitrate Bitrate Main Audio Track Secondary Audio Track
----- ------ ------- -------------- -------------- ------- ------- ------------------ ---------------------
00065.MPLS VC-1 0:00:33 68 130 816 34 906 374 913 16,34 14,89 DD AC3 5.1 640Kbps
Код:
DISC INFO:

Disc Title: The Skeleton Key 2005 1080p Blu-ray EUR VC-1 DTS HD-MA 5.1
Disc Size: 34 906 374 913 bytes
Protection: AACS
BD-Java: Yes
BDInfo: 0.5.2

PLAYLIST REPORT:

Name: 00065.MPLS
Size: 68 130 816 bytes
Length: 0:00:33 (h:m:s)
Total Bitrate: 16,34 Mbps
Description:

VIDEO:

Codec Bitrate Description
----- ------- -----------
VC-1 Video 14890 kbps 1080p / 23,976 fps / 16:9 / Advanced Profile 3

AUDIO:

Codec Language Bitrate Description
----- -------- ------- -----------
Dolby Digital Audio English 640 kbps 5.1 / 48 kHz / 640 kbps

FILES:

Name Time In Length Size Total Bitrate
---- ------- ------ ---- -------------
00145.M2TS 0:00:00.000 0:00:33.366 68 130 816 16 335

CHAPTERS:

Number Time In Length Avg Video Rate Max 1-Sec Rate Max 1-Sec Time Max 5-Sec Rate Max 5-Sec Time Max 10Sec Rate Max 10Sec Time Avg Frame Size Max Frame Size Max Frame Time
------ ------- ------ -------------- -------------- -------------- -------------- -------------- -------------- -------------- -------------- -------------- --------------
1 0:00:00.000 0:00:33.366 14 890 kbps 27 647 kbps 00:00:03.294 21 504 kbps 00:00:23.398 18 539 kbps 00:00:02.669 79 930 bytes 320 023 bytes 00:00:13.513

STREAM DIAGNOSTICS:

File PID Type Codec Language Seconds Bitrate Bytes Packets
---- --- ---- ----- -------- -------------- -------------- ------------- -----
00145.M2TS 4113 (0x1011) 0xEA VC-1 33,242 14 946 62 105 360 338 058
00145.M2TS 4352 (0x1100) 0x81 AC3 eng (English) 33,242 643 2 670 080 15 645
<---- END FORUMS PASTE ---->

QUICK SUMMARY:

Disc Title: The Skeleton Key 2005 1080p Blu-ray EUR VC-1 DTS HD-MA 5.1
Disc Size: 34 906 374 913 bytes
Protection: AACS
BD-Java: Yes
Playlist: 00065.MPLS
Size: 68 130 816 bytes
Length: 0:00:33
Total Bitrate: 16,34 Mbps
Video: VC-1 Video / 14890 kbps / 1080p / 23,976 fps / 16:9 / Advanced Profile 3
Audio: English / Dolby Digital Audio / 5.1 / 48 kHz / 640 kbps

********************
PLAYLIST: 00073.MPLS
********************

<--- BEGIN FORUMS PASTE --->
Код:
Total Video
Title Codec Length Movie Size Disc Size Bitrate Bitrate Main Audio Track Secondary Audio Track
----- ------ ------- -------------- -------------- ------- ------- ------------------ ---------------------
00073.MPLS VC-1 0:00:33 67 301 376 34 906 374 913 16,14 14,70 DD AC3 5.1 640Kbps
Код:
DISC INFO:

Disc Title: The Skeleton Key 2005 1080p Blu-ray EUR VC-1 DTS HD-MA 5.1
Disc Size: 34 906 374 913 bytes
Protection: AACS
BD-Java: Yes
BDInfo: 0.5.2

PLAYLIST REPORT:

Name: 00073.MPLS
Size: 67 301 376 bytes
Length: 0:00:33 (h:m:s)
Total Bitrate: 16,14 Mbps
Description:

VIDEO:

Codec Bitrate Description
----- ------- -----------
VC-1 Video 14700 kbps 1080p / 23,976 fps / 16:9 / Advanced Profile 3

AUDIO:

Codec Language Bitrate Description
----- -------- ------- -----------
Dolby Digital Audio English 640 kbps 5.1 / 48 kHz / 640 kbps

FILES:

Name Time In Length Size Total Bitrate
---- ------- ------ ---- -------------
00144.M2TS 0:00:00.000 0:00:33.366 67 301 376 16 136

CHAPTERS:

Number Time In Length Avg Video Rate Max 1-Sec Rate Max 1-Sec Time Max 5-Sec Rate Max 5-Sec Time Max 10Sec Rate Max 10Sec Time Avg Frame Size Max Frame Size Max Frame Time
------ ------- ------ -------------- -------------- -------------- -------------- -------------- -------------- -------------- -------------- -------------- --------------
1 0:00:00.000 0:00:33.366 14 700 kbps 27 184 kbps 00:00:03.503 19 938 kbps 00:00:02.794 19 110 kbps 00:00:03.503 78 906 bytes 331 770 bytes 00:00:12.429

STREAM DIAGNOSTICS:

File PID Type Codec Language Seconds Bitrate Bytes Packets
---- --- ---- ----- -------- -------------- -------------- ------------- -----
00144.M2TS 4113 (0x1011) 0xEA VC-1 33,242 14 755 61 309 765 333 724
00144.M2TS 4352 (0x1100) 0x81 AC3 eng (English) 33,242 643 2 670 080 15 645
<---- END FORUMS PASTE ---->

QUICK SUMMARY:

Disc Title: The Skeleton Key 2005 1080p Blu-ray EUR VC-1 DTS HD-MA 5.1
Disc Size: 34 906 374 913 bytes
Protection: AACS
BD-Java: Yes
Playlist: 00073.MPLS
Size: 67 301 376 bytes
Length: 0:00:33
Total Bitrate: 16,14 Mbps
Video: VC-1 Video / 14700 kbps / 1080p / 23,976 fps / 16:9 / Advanced Profile 3
Audio: English / Dolby Digital Audio / 5.1 / 48 kHz / 640 kbps

********************
PLAYLIST: 00011.MPLS
********************

<--- BEGIN FORUMS PASTE --->
Код:
Total Video
Title Codec Length Movie Size Disc Size Bitrate Bitrate Main Audio Track Secondary Audio Track
----- ------ ------- -------------- -------------- ------- ------- ------------------ ---------------------
00011.MPLS VC-1 0:00:23 64 106 496 34 906 374 913 21,69 20,02 DD AC3 5.1 640Kbps
Код:
DISC INFO:

Disc Title: The Skeleton Key 2005 1080p Blu-ray EUR VC-1 DTS HD-MA 5.1
Disc Size: 34 906 374 913 bytes
Protection: AACS
BD-Java: Yes
BDInfo: 0.5.2

PLAYLIST REPORT:

Name: 00011.MPLS
Size: 64 106 496 bytes
Length: 0:00:23 (h:m:s)
Total Bitrate: 21,69 Mbps
Description:

VIDEO:

Codec Bitrate Description
----- ------- -----------
VC-1 Video 20019 kbps 1080p / 23,976 fps / 16:9 / Advanced Profile 3

AUDIO:

Codec Language Bitrate Description
----- -------- ------- -----------
Dolby Digital Audio English 640 kbps 5.1 / 48 kHz / 640 kbps

FILES:

Name Time In Length Size Total Bitrate
---- ------- ------ ---- -------------
00000.M2TS 0:00:00.000 0:00:23.648 64 106 496 21 686

CHAPTERS:

Number Time In Length Avg Video Rate Max 1-Sec Rate Max 1-Sec Time Max 5-Sec Rate Max 5-Sec Time Max 10Sec Rate Max 10Sec Time Avg Frame Size Max Frame Size Max Frame Time
------ ------- ------ -------------- -------------- -------------- -------------- -------------- -------------- -------------- -------------- -------------- --------------
1 0:00:00.000 0:00:23.648 20 019 kbps 43 839 kbps 00:00:07.966 36 473 kbps 00:00:07.048 32 577 kbps 00:00:04.713 108 781 bytes 471 987 bytes 00:00:08.591

STREAM DIAGNOSTICS:

File PID Type Codec Language Seconds Bitrate Bytes Packets
---- --- ---- ----- -------- -------------- -------------- ------------- -----
00000.M2TS 4113 (0x1011) 0xEA VC-1 23,565 20 090 59 176 948 321 957
00000.M2TS 4352 (0x1100) 0x81 AC3 eng (English) 23,565 643 1 894 400 11 100
<---- END FORUMS PASTE ---->

QUICK SUMMARY:

Disc Title: The Skeleton Key 2005 1080p Blu-ray EUR VC-1 DTS HD-MA 5.1
Disc Size: 34 906 374 913 bytes
Protection: AACS
BD-Java: Yes
Playlist: 00011.MPLS
Size: 64 106 496 bytes
Length: 0:00:23
Total Bitrate: 21,69 Mbps
Video: VC-1 Video / 20019 kbps / 1080p / 23,976 fps / 16:9 / Advanced Profile 3
Audio: English / Dolby Digital Audio / 5.1 / 48 kHz / 640 kbps

********************
PLAYLIST: 00012.MPLS
********************

<--- BEGIN FORUMS PASTE --->
Код:
Total Video
Title Codec Length Movie Size Disc Size Bitrate Bitrate Main Audio Track Secondary Audio Track
----- ------ ------- -------------- -------------- ------- ------- ------------------ ---------------------
00012.MPLS VC-1 0:00:14 31 291 392 34 906 374 913 17,86 16,58 DD AC3 5.1 448Kbps
Код:
DISC INFO:

Disc Title: The Skeleton Key 2005 1080p Blu-ray EUR VC-1 DTS HD-MA 5.1
Disc Size: 34 906 374 913 bytes
Protection: AACS
BD-Java: Yes
BDInfo: 0.5.2

PLAYLIST REPORT:

Name: 00012.MPLS
Size: 31 291 392 bytes
Length: 0:00:14 (h:m:s)
Total Bitrate: 17,86 Mbps
Description:

VIDEO:

Codec Bitrate Description
----- ------- -----------
VC-1 Video 16583 kbps 1080p / 23,976 fps / 16:9 / Advanced Profile 3

AUDIO:

Codec Language Bitrate Description
----- -------- ------- -----------
Dolby Digital Audio English 448 kbps 5.1 / 48 kHz / 448 kbps

FILES:

Name Time In Length Size Total Bitrate
---- ------- ------ ---- -------------
00001.M2TS 0:00:00.000 0:00:14.014 31 291 392 17 863

CHAPTERS:

Number Time In Length Avg Video Rate Max 1-Sec Rate Max 1-Sec Time Max 5-Sec Rate Max 5-Sec Time Max 10Sec Rate Max 10Sec Time Avg Frame Size Max Frame Size Max Frame Time
------ ------- ------ -------------- -------------- -------------- -------------- -------------- -------------- -------------- -------------- -------------- --------------
1 0:00:00.000 0:00:14.014 16 583 kbps 34 287 kbps 00:00:02.502 23 404 kbps 00:00:02.544 21 711 kbps 00:00:01.668 92 218 bytes 403 709 bytes 00:00:03.461

STREAM DIAGNOSTICS:

File PID Type Codec Language Seconds Bitrate Bytes Packets
---- --- ---- ----- -------- -------------- -------------- ------------- -----
00001.M2TS 4113 (0x1011) 0xEA VC-1 13,931 16 682 29 048 641 158 078
00001.M2TS 4352 (0x1100) 0x81 AC3 eng (English) 13,931 451 784 896 4 380
<---- END FORUMS PASTE ---->

QUICK SUMMARY:

Disc Title: The Skeleton Key 2005 1080p Blu-ray EUR VC-1 DTS HD-MA 5.1
Disc Size: 34 906 374 913 bytes
Protection: AACS
BD-Java: Yes
Playlist: 00012.MPLS
Size: 31 291 392 bytes
Length: 0:00:14
Total Bitrate: 17,86 Mbps
Video: VC-1 Video / 16583 kbps / 1080p / 23,976 fps / 16:9 / Advanced Profile 3
Audio: English / Dolby Digital Audio / 5.1 / 48 kHz / 448 kbps

********************
PLAYLIST: 00200.MPLS
********************

<--- BEGIN FORUMS PASTE --->
Код:
Total Video
Title Codec Length Movie Size Disc Size Bitrate Bitrate Main Audio Track Secondary Audio Track
----- ------ ------- -------------- -------------- ------- ------- ------------------ ---------------------
00200.MPLS VC-1 0:00:12 23 685 120 34 906 374 913 15,77 13,75 DD AC3 2.0 448Kbps
Код:
DISC INFO:

Disc Title: The Skeleton Key 2005 1080p Blu-ray EUR VC-1 DTS HD-MA 5.1
Disc Size: 34 906 374 913 bytes
Protection: AACS
BD-Java: Yes
BDInfo: 0.5.2

PLAYLIST REPORT:

Name: 00200.MPLS
Size: 23 685 120 bytes
Length: 0:00:12 (h:m:s)
Total Bitrate: 15,77 Mbps
Description:

VIDEO:

Codec Bitrate Description
----- ------- -----------
VC-1 Video 13751 kbps 1080p / 23,976 fps / 16:9 / Advanced Profile 3

AUDIO:

Codec Language Bitrate Description
----- -------- ------- -----------
Dolby Digital Audio English 448 kbps 2.0 / 48 kHz / 448 kbps

SUBTITLES:

Codec Language Bitrate Description
----- -------- ------- -----------
Presentation Graphics English 39,989 kbps
Presentation Graphics Chinese 32,644 kbps
Presentation Graphics Danish 36,801 kbps
Presentation Graphics Dutch 40,831 kbps
Presentation Graphics Finnish 37,692 kbps
Presentation Graphics French 46,155 kbps
Presentation Graphics German 45,378 kbps
Presentation Graphics Greek 52,655 kbps
Presentation Graphics Italian 48,599 kbps
Presentation Graphics Japanese 44,900 kbps
Presentation Graphics Korean 32,410 kbps
Presentation Graphics Norwegian 35,416 kbps
Presentation Graphics Portuguese 38,618 kbps
Presentation Graphics Portuguese 45,512 kbps
Presentation Graphics Russian 39,590 kbps
Presentation Graphics Spanish 46,189 kbps
Presentation Graphics Spanish 41,187 kbps
Presentation Graphics Swedish 36,059 kbps
Presentation Graphics Thai 40,746 kbps

FILES:

Name Time In Length Size Total Bitrate
---- ------- ------ ---- -------------
50112.M2TS 0:00:00.000 0:00:12.012 23 685 120 15 774

CHAPTERS:

Number Time In Length Avg Video Rate Max 1-Sec Rate Max 1-Sec Time Max 5-Sec Rate Max 5-Sec Time Max 10Sec Rate Max 10Sec Time Avg Frame Size Max Frame Size Max Frame Time
------ ------- ------ -------------- -------------- -------------- -------------- -------------- -------------- -------------- -------------- -------------- --------------
1 0:00:00.000 0:00:12.012 13 751 kbps 41 407 kbps 00:00:07.632 29 627 kbps 00:00:06.464 15 827 kbps 00:00:01.459 71 941 bytes 545 998 bytes 00:00:08.466

STREAM DIAGNOSTICS:

File PID Type Codec Language Seconds Bitrate Bytes Packets
---- --- ---- ----- -------- -------------- -------------- ------------- -----
50112.M2TS 4113 (0x1011) 0xEA VC-1 11,887 13 896 20 646 950 112 397
50112.M2TS 4352 (0x1100) 0x81 AC3 eng (English) 11,887 453 673 792 3 760
50112.M2TS 4608 (0x1200) 0x90 PGS jpn (Japanese) 11,887 45 67 417 387
50112.M2TS 4609 (0x1201) 0x90 PGS eng (English) 11,887 40 60 044 340
50112.M2TS 4610 (0x1202) 0x90 PGS fra (French) 11,887 47 69 302 397
50112.M2TS 4611 (0x1203) 0x90 PGS ita (Italian) 11,887 49 72 971 418
50112.M2TS 4612 (0x1204) 0x90 PGS deu (German) 11,887 46 68 135 390
50112.M2TS 4613 (0x1205) 0x90 PGS spa (Spanish) 11,887 47 69 353 398
50112.M2TS 4614 (0x1206) 0x90 PGS por (Portuguese) 11,887 39 57 985 337
50112.M2TS 4615 (0x1207) 0x90 PGS spa (Spanish) 11,887 42 61 842 357
50112.M2TS 4616 (0x1208) 0x90 PGS rus (Russian) 11,887 40 59 445 344
50112.M2TS 4617 (0x1209) 0x90 PGS dan (Danish) 11,887 37 55 257 322
50112.M2TS 4618 (0x120A) 0x90 PGS nld (Dutch) 11,887 41 61 308 355
50112.M2TS 4619 (0x120B) 0x90 PGS fin (Finnish) 11,887 38 56 595 329
50112.M2TS 4620 (0x120C) 0x90 PGS ell (Greek) 11,887 53 79 061 451
50112.M2TS 4621 (0x120D) 0x90 PGS kor (Korean) 11,887 33 48 664 286
50112.M2TS 4622 (0x120E) 0x90 PGS nor (Norwegian) 11,887 36 53 177 310
50112.M2TS 4623 (0x120F) 0x90 PGS por (Portuguese) 11,887 46 68 336 392
50112.M2TS 4624 (0x1210) 0x90 PGS swe (Swedish) 11,887 36 54 142 314
50112.M2TS 4625 (0x1211) 0x90 PGS tha (Thai) 11,887 41 61 180 353
50112.M2TS 4626 (0x1212) 0x90 PGS zho (Chinese) 11,887 33 49 015 287
<---- END FORUMS PASTE ---->

QUICK SUMMARY:

Disc Title: The Skeleton Key 2005 1080p Blu-ray EUR VC-1 DTS HD-MA 5.1
Disc Size: 34 906 374 913 bytes
Protection: AACS
BD-Java: Yes
Playlist: 00200.MPLS
Size: 23 685 120 bytes
Length: 0:00:12
Total Bitrate: 15,77 Mbps
Video: VC-1 Video / 13751 kbps / 1080p / 23,976 fps / 16:9 / Advanced Profile 3
Audio: English / Dolby Digital Audio / 2.0 / 48 kHz / 448 kbps
Subtitle: English / 39,989 kbps
Subtitle: Chinese / 32,644 kbps
Subtitle: Danish / 36,801 kbps
Subtitle: Dutch / 40,831 kbps
Subtitle: Finnish / 37,692 kbps
Subtitle: French / 46,155 kbps
Subtitle: German / 45,378 kbps
Subtitle: Greek / 52,655 kbps
Subtitle: Italian / 48,599 kbps
Subtitle: Japanese / 44,900 kbps
Subtitle: Korean / 32,410 kbps
Subtitle: Norwegian / 35,416 kbps
Subtitle: Portuguese / 38,618 kbps
Subtitle: Portuguese / 45,512 kbps
Subtitle: Russian / 39,590 kbps
Subtitle: Spanish / 46,189 kbps
Subtitle: Spanish / 41,187 kbps
Subtitle: Swedish / 36,059 kbps
Subtitle: Thai / 40,746 kbps
Свернуть

Скриншоты

Изображение
Изображение
Изображение
Изображение
Изображение
Изображение
Свернуть
При создании Релиза выражается огромная благодарность многоуважаемому ам64!!!
_________________
Изображение
Изображение Изображение ИзображениеИзображение Изображение Изображение Изображение Изображение Изображение Изображение


Тема поднималась пользователем Ko4etoff 2011-11-12 14:34.
Не в сети
Профиль  
Начать новую темуОтветить на тему  [ 1 сообщение ] 
Вы не можете начинать темы
Вы не можете отвечать на сообщения
Вы не можете редактировать свои сообщения
Вы не можете удалять свои сообщения