Правила форума

Здесь находятся раздачи, на которых не было полного источника (сида) более месяца.
Вы можете вернуть релиз в соответствующий раздел, для этого напишите нам в специальной теме и встаньте на раздачу.
Новые релизы, повторяющие релизы в архиве, повторами не считаются.
Начать новую темуОтветить на тему  [ Сообщений: 2 ] 
Сообщения
 Добавлено: 2011-12-18 13:10
Top-releaser
Аватара пользователя
Стаж: 7 лет 3 месяца
Возраст: 25
Сообщений: 1036
Спасибок: 2694
Лайков: 9
Кожа, в которой я живу
La piel que habito

Изображение


Год выхода: 2011
Страна: Испания

Жанр: триллер, драма
Продолжительность: 02:00:10
Перевод: Дублированный

Режиссер: Педро Альмодовар
Сценарий: Агустин Альмодовар, Педро Альмодовар, Тьерри Жонке
Продюсер: Агустин Альмодовар, Эстер Гарсия, Барбара Пейро Асо
Оператор: Хосе Луис Алькайне
Композитор: Альберто Иглесиас

В ролях: Антонио Бандерас, Елена Анайя, Бланка Суарес, Жан Корнет, Мариса Паредес, Барбара Ленни, Фернандо Кайо, Эдуард Фернандес, Роберто Аламо, Агустин Альмодовар

Описание: Гений пластической хирургии д-р Ледгард, путем дерзких генетических экспериментов создавший искусственную человеческую кожу, ведет охоту на подонка, который много лет назад изнасиловал его дочь. Жестокость его мести не знает предела…


Изображение

Pаздача группы:Изображение

Качество: BDRip 1080p
Формат: Mkv

Видео: MPEG4 Video (H264) 1920x1038 24.00fps 17.9 Mbps
Аудио 1: DTS 48000Hz 6ch 1 510 Kbps
Аудио 2: DTS 48000Hz 6ch 1 510 Kbps
Subtitle: Utf-8

Изображение

MediaInfo
General
Unique ID : 242733725853226110773763514307720010769 (0xB69CD0AB449643B6A558E99838485C11)
Complete name : H:\Download\Kozha.v.kotoroj.ja.zhivu.DVD_RG(1080p).mkv
Format : Matroska
Format version : Version 2
File size : 17.6 GiB
Duration : 2h 0mn
Overall bit rate : 20.9 Mbps
Movie name : = boofer =
Encoded date : UTC 2011-12-14 23:04:48
Writing application : mkvmerge v4.9.1 ('Ich will') сборка от Jul 11 2011 23:53:15
Writing library : libebml v1.2.1 + libmatroska v1.1.1

Video
ID : 1
Format : AVC
Format/Info : Advanced Video Codec
Format profile : High@L4.1
Format settings, CABAC : Yes
Format settings, ReFrames : 4 frames
Codec ID : V_MPEG4/ISO/AVC
Duration : 2h 0mn
Bit rate : 17.9 Mbps
Width : 1 920 pixels
Height : 1 038 pixels
Display aspect ratio : 1.850
Frame rate : 24.000 fps
Color space : YUV
Chroma subsampling : 4:2:0
Bit depth : 8 bits
Scan type : Progressive
Bits/(Pixel*Frame) : 0.374
Stream size : 14.7 GiB (84%)
Writing library : x264 core 116 r2074 2641b9e
Encoding settings : cabac=1 / ref=4 / deblock=1:-2:-2 / analyse=0x3:0x113 / me=umh / subme=11 / psy=1 / psy_rd=1.00:0.00 / mixed_ref=1 / me_range=32 / chroma_me=1 / trellis=2 / 8x8dct=1 / cqm=0 / deadzone=21,11 / fast_pskip=0 / chroma_qp_offset=-2 / threads=12 / sliced_threads=0 / nr=0 / decimate=1 / interlaced=0 / bluray_compat=0 / constrained_intra=0 / bframes=8 / b_pyramid=2 / b_adapt=2 / b_bias=0 / direct=3 / weightb=1 / open_gop=0 / weightp=2 / keyint=250 / keyint_min=24 / scenecut=40 / intra_refresh=0 / rc_lookahead=60 / rc=2pass / mbtree=1 / bitrate=17900 / ratetol=1.0 / qcomp=0.70 / qpmin=0 / qpmax=69 / qpstep=4 / cplxblur=20.0 / qblur=0.5 / vbv_maxrate=50000 / vbv_bufsize=50000 / nal_hrd=none / ip_ratio=1.40 / aq=1:1.00
Language : English

Audio #1
ID : 2
Format : DTS
Format/Info : Digital Theater Systems
Codec ID : A_DTS
Duration : 2h 0mn
Bit rate mode : Constant
Bit rate : 1 510 Kbps
Channel(s) : 6 channels
Channel positions : Front: L C R, Side: L R, LFE
Sampling rate : 48.0 KHz
Bit depth : 16 bits
Compression mode : Lossy
Stream size : 1.27 GiB (7%)
Title : DTS
Language : Russian

Audio #2
ID : 3
Format : DTS
Format/Info : Digital Theater Systems
Codec ID : A_DTS
Duration : 2h 0mn
Bit rate mode : Constant
Bit rate : 1 510 Kbps
Channel(s) : 6 channels
Channel positions : Front: L C R, Side: L R, LFE
Sampling rate : 48.0 KHz
Bit depth : 16 bits
Compression mode : Lossy
Stream size : 1.27 GiB (7%)
Title : DTS
Language : Spanish

Text
ID : 4
Format : UTF-8
Codec ID : S_TEXT/UTF8
Codec ID/Info : UTF-8 Plain Text
Language : Russian

Menu
00:00:00.000 : ru:00:00:00.000000000
00:05:00.000 : :00:05:00.000000000
00:10:00.000 : :00:10:00.000000000
00:15:00.000 : :00:15:00.000000000
00:20:00.000 : :00:20:00.000000000
00:25:00.000 : :00:25:00.000000000
00:30:00.000 : :00:30:00.000000000
00:35:00.000 : :00:35:00.000000000
00:40:00.000 : :00:40:00.000000000
00:45:00.000 : :00:45:00.000000000
00:50:00.000 : :00:50:00.000000000
00:55:00.000 : :00:55:00.000000000
01:00:00.000 : :01:00:00.000000000
01:05:00.000 : :01:05:00.000000000
01:10:00.000 : :01:10:00.000000000
01:15:00.000 : :01:15:00.000000000
01:20:00.000 : :01:20:00.000000000
01:25:00.000 : :01:25:00.000000000
01:30:00.000 : :01:30:00.000000000
01:35:00.000 : :01:35:00.000000000
01:40:00.000 : :01:40:00.000000000
01:45:00.000 : :01:45:00.000000000
01:50:00.000 : :01:50:00.000000000
01:55:00.000 : :01:55:00.000000000


Свернуть
Скриншоты
Изображение
Изображение
Изображение
Изображение
Изображение
Изображение

Свернуть
Не в сети
Профиль  
 Добавлено: 2011-12-19 15:56 (спустя 1 день 2 часа)
Аватара пользователя
Стаж: 8 лет 2 месяца
Возраст: 28
Сообщений: 61
Спасибок: 1
Норм фильм
Не в сети
Профиль  
Начать новую темуОтветить на тему  [ Сообщений: 2 ] 
Вы не можете начинать темы
Вы не можете отвечать на сообщения
Вы не можете редактировать свои сообщения
Вы не можете удалять свои сообщения