Правила форума

Здесь находятся раздачи, на которых не было полного источника (сида) более месяца.
Вы можете вернуть релиз в соответствующий раздел, для этого напишите нам в специальной теме и встаньте на раздачу.
Новые релизы, повторяющие релизы в архиве, повторами не считаются.
Начать новую темуОтветить на тему  [ Сообщений: 2 ] 
Сообщения
 Добавлено: 2011-12-15 22:24
Аватара пользователя
Стаж: 5 лет 5 месяцев
Возраст: 30
Сообщений: 353
Спасибок: 7455
Коломбиана / Colombiana

Изображение


Год выпуска: 2011
Страна: США, Франция (A.J.O.Z. Films, Canal+ [fr], Ciné Cinémas, Europa Corp., Grive Productions, TF1 Films Production)
Слоган: «Месть бывает прекрасна»
Жанр: боевик, триллер, драма, криминал
Продолжительность: 01:43:29
Перевод: Профессиональный (дубляж)
Дублеры: Ирина Киреева, Борис Токарев, Денис Беспалый, Александра Остроухова, Александр Коврижных + Профессиональный (дубляж)
Дублеры: Ирина Киреева, Борис Токарев, Денис Беспалый, Александра Остроухова, Александр Коврижных + Оригинальная звуковая дорожка
Субтитры: Русские

Режиссёр: Оливье Мегатон / Olivier Megaton
Сценарист: Люк Бессон, Роберт Марк Кэмен
Продюсер: Люк Бессон, Пьер-Анж Ле Погам, Мариано Карранко
Оператор: Ромейн Лакурбас
Композитор: Натэниел Мекали
В ролях: Зои Салдана, Хорди Молья, Ленни Джеймс, Амандла Стенберг, Майкл Вартан, Клифф Кёртис, Бету Бенитес, Джесси Боррего, Синтия Аддай-Робинсон, Энджел Гарница
Описание: Кат было всего 9, когда на ее глазах неизвестные жестоко убили ее родителей. Девочка сумела убежать от бандитов и найти убежище в Чикаго у своего дяди. Теперь Кат профессиональный убийца. Во что бы то ни стало она должна распутать клубок давнего преступления и отомстить за смерть родителей. Все следы ведут к колумбийскому наркобарону Дону Лусиа. Единственная нить, соединяющая девушку-убийцу с миром обычных людей — это ее возлюбленный, который не догадывается, чем на самом деле занимается его подружка…
Доп.информация: Фильм о фильме, Интервью создателей фильма
Рейтинг MPAA: Рейтинг PG-13 (Дети до 13 лет допускаются на фильм только с родителями)
Мировая премьера: 27 июля 2011
Премьера в России: 8 сентября 2011, «Парадиз»
Бюджет: $45 000 000
Кассовые сборы: + $24 300 000 = $60 965 854

Изображение Изображение Изображение

Качество: DVD9 R5
Формат: DVD Video
Видео кодек: MPEG2
Аудио кодек: AC3 (Dolby Digital)
Видео: PAL 16:9 (720x576(0.501)) MPEG Video, 25,000 кадр/сек, 5191 Кбит/сек
Аудио #1: Russian (Dolby AC3, 6 ch) 384 Кбит/сек, 48,0 КГц [Профессиональный (дубляж)]
Аудио #2: Russian (Dolby AC3, 2 ch) 192 Кбит/сек, 48,0 КГц [Профессиональный (дубляж)]
Аудио #3: English (Dolby AC3, 6 ch) 384 Кбит/сек, 48,0 КГц [Оригинальная звуковая дорожка]
Субтитры: Русские
"DVDInfo"
Title: Рабочий
Size: 7.44 Gb ( 7 802 272 KBytes ) - DVD-9
Enabled regions: 1, 2, 3, 4, 5, 6, 7, 8

VTS_01 :
Play Length: 00:00:01+01:43:27
Video: PAL 16:9 (720x576) VBR, Auto Letterboxed
Audio:
Russian (Dolby AC3, 6 ch)
Russian (Dolby AC3, 2 ch)
English (Dolby AC3, 6 ch)
Subtitles:
Russian

VTS_02 :
Play Length: 00:00:01+00:00:11
Video: PAL 16:9 (720x576) VBR, Auto Letterboxed
Audio:
Russian (Dolby AC3, 2 ch)

VTS_03 :
Play Length: 00:00:01+00:00:19
Video: PAL 4:3 (720x576) VBR
Audio:
Russian (Dolby AC3, 2 ch)

VTS_04 :
Play Length: 00:00:01+00:11:32
Video: PAL 16:9 (720x576) VBR, Auto Letterboxed
Audio:
Russian (Dolby AC3, 2 ch)

VTS_05 :
Play Length: 00:00:01+00:19:53+00:54:10
Video: PAL 16:9 (720x576) VBR, Auto Letterboxed
Audio:
Russian (Dolby AC3, 2 ch)

Свернуть

"MediaInfo"
Общее
Полное имя : G:\Новинки 2011\Colombiana.2011.DVD9\VIDEO_TS\VTS_01_1.VOB
Формат : MPEG-PS
Размер файла : 1024 Мбайт
Продолжительность : 22 м.
Общий поток : 6276 Кбит/сек

Видео
Идентификатор : 224 (0xE0)
Формат : MPEG Video
Версия формата : Version 2
Профиль формата : Main@Main
Параметр BVOP формата : Да
Параметр матрицы формата : Выборочная
Продолжительность : 22 м.
Битрейт : 5191 Кбит/сек
Максимальный битрейт : 6000 Кбит/сек
Ширина : 720 пикселей
Высота : 576 пикселей
Соотношение сторон : 16:9
Частота кадров : 25,000 кадров/сек
Стандарт вещания : PAL
Цветовое пространство : YUV
Субдискретизация насыщенности : 4:2:0
Битовая глубина : 8 бит
Тип развёртки : Чересстрочная
Порядок развёртки : Нижнее поле первое
Метод сжатия : С потерями
Бит/(Пиксели*Кадры) : 0.501
Размер потока : 847 Мбайт (83%)

Аудио #1
Идентификатор : 189 (0xBD)-128 (0x80)
Формат : AC-3
Формат/Информация : Audio Coding 3
Расширение режима : CM (complete main)
Режим смешивания : DVD-Video
Продолжительность : 22 м.
Вид битрейта : Постоянный
Битрейт : 384 Кбит/сек
Каналы : 6 каналов
Расположение каналов : Front: L C R, Side: L R, LFE
Частота : 48,0 КГц
Битовая глубина : 16 бит
Метод сжатия : С потерями
Размер потока : 62,6 Мбайт (6%)

Аудио #2
Идентификатор : 189 (0xBD)-129 (0x81)
Формат : AC-3
Формат/Информация : Audio Coding 3
Расширение режима : CM (complete main)
Режим смешивания : DVD-Video
Продолжительность : 22 м.
Вид битрейта : Постоянный
Битрейт : 192 Кбит/сек
Каналы : 2 канала
Расположение каналов : Front: L R
Частота : 48,0 КГц
Битовая глубина : 16 бит
Метод сжатия : С потерями
Размер потока : 31,3 Мбайт (3%)

Аудио #3
Идентификатор : 189 (0xBD)-130 (0x82)
Формат : AC-3
Формат/Информация : Audio Coding 3
Расширение режима : CM (complete main)
Режим смешивания : DVD-Video
Продолжительность : 22 м.
Вид битрейта : Постоянный
Битрейт : 384 Кбит/сек
Каналы : 6 каналов
Расположение каналов : Front: L C R, Side: L R, LFE
Частота : 48,0 КГц
Битовая глубина : 16 бит
Метод сжатия : С потерями
Размер потока : 62,6 Мбайт (6%)

Текст
Идентификатор : 189 (0xBD)-32 (0x20)
Формат : RLE
Формат/Информация : Run-length encoding
Режим смешивания : DVD-Video
Продолжительность : 22 м.

Свернуть

Скриншоты
Скриншоты меню
Изображение
Изображение
Изображение
Изображение
Свернуть
Изображение
Изображение
Изображение
Изображение
Изображение
Изображение
Изображение
Изображение
Свернуть

Знаете ли Вы, что...
Изначальный вариант сценария, должен был лечь в основу продолжения картины 1994 года «Леон». Фильм должен был рассказать историю Матильды, выросшей и получившей еще один мотив для мести.
Свернуть

Изображение
Не в сети
Профиль  
 Добавлено: 2011-12-17 17:05 (спустя 1 день 18 часов)
Аватара пользователя
Стаж: 8 лет 2 месяца
Сообщений: 50
Спасибок: 7
как фильм
Не в сети
Профиль  
Начать новую темуОтветить на тему  [ Сообщений: 2 ] 
Вы не можете начинать темы
Вы не можете отвечать на сообщения
Вы не можете редактировать свои сообщения
Вы не можете удалять свои сообщения
cron