Правила форума

Здесь находятся раздачи, на которых не было полного источника (сида) более месяца.
Вы можете вернуть релиз в соответствующий раздел, для этого напишите нам в специальной теме и встаньте на раздачу.
Новые релизы, повторяющие релизы в архиве, повторами не считаются.
Начать новую темуЭта тема закрыта, вы не можете редактировать и оставлять сообщения в ней.  [ Сообщений: 5 ] 
Сообщения
 Добавлено: 2011-11-05 14:40
Top-releaser
Аватара пользователя
Стаж: 8 лет 9 месяцев
Сообщений: 479
Спасибок: 20190
Лайков: 16
Изображение

Conan the Barbarian


«Легенда возрождается»

Изображение


Год выпуска: 2011
Страна: Изображение США; Millennium Films
Жанр: Фэнтези, боевик, приключения
Продолжительность: 01:52:42
Перевод: Профессиональный (дублированный) [звук с CAMRip]

Режиссёр: Маркус Ниспел / Marcus Nispel

В ролях: Джейсон Момоа, Рон Перлман, Стивен Лэнг, Рейчел Николс, Роуз МакГоун, Боб Сапп, Лео Ховард, Стив О’Доннелл, Нонсо Анози, Раад Рави

Описание: Природа наделила его силой. Гибель отца сделала его свирепым. Великий киммерийский воин Конан отправляется в дальнее странствие, чтобы совершить отмщение за кровь своего рода. Но поиски, которые начинаются как личная вендетта, вскоре оборачиваются эпической схваткой со сверхъестественными силами, поработившими народы великой Хайбории. Киммерийский воин — последняя надежда на спасение…


Качество: BDRip 720p
Формат: MKV

Видео: AVC, MPEG-4 1280x534, 23.976 fps, ~ 4.8 Mb/s

Аудио 1: 48 kHz, AC3 Dolby Digital, 2 ch, ~128 kbps (Дубляж)
Аудио 2: 48 kHz, DTS-HD, 6 канал(ов), ~1510 kbit/s (Оригинал)

Раздача: Изображение

Изображение

Изображение
MediaInfo

Общее
Уникальный идентификатор : 213850429441678439272558802484390685216 (0xA0E218359EC79870A91A586E0A566A20)
Полное имя : C:\Users\Домашний\Desktop\Konan-varvar.2011. BDRip.720p[nntt].mkv
Формат : Matroska
Размер файла : 5,11 Гбайт
Продолжительность : 1 ч. 52 м.
Общий поток : 6486 Кбит/сек
Дата кодирования : UTC 2011-11-05 07:58:18
Программа кодирования : mkvmerge v3.4.0 ('Rapunzel') built on May 15 2010 09:38:20
Библиотека кодирования : libebml v0.8.0 + libmatroska v0.9.0

Видео
Идентификатор : 1
Формат : AVC
Формат/Информация : Advanced Video Codec
Профиль формата : High@L4.1
Параметр CABAC формата : Да
Параметр ReFrames формата : 12 кадры
Идентификатор кодека : V_MPEG4/ISO/AVC
Продолжительность : 1 ч. 52 м.
Битрейт : 4841 Кбит/сек
Ширина : 1280 пикс.
Высота : 534 пикс.
Соотношение сторон : 2,35:1
Частота кадров : 23,976 кадр/сек
Цветовое пространство : YUV
Подвыборка цветности : 4:2:0
Битовая глубина : 8 бит
Тип развёртки : Прогрессивная
Бит/(Пиксели*Кадры) : 0.295
Размер потока : 3,72 Гбайт (73%)
Заголовок : Conan.The.Barbarian.2011.BluRay.720p.DTS.x264-CHD
Библиотека кодирования : x264 core 102 r1666 d058f37
Настройки программы : cabac=1 / ref=12 / deblock=1:-3:-3 / analyse=0x3:0x113 / me=umh / subme=10 / psy=1 / psy_rd=1.05:0.10 / mixed_ref=1 / me_range=32 / chroma_me=1 / trellis=2 / 8x8dct=1 / cqm=2 / deadzone=21,11 / fast_pskip=0 / chroma_qp_offset=-2 / threads=6 / sliced_threads=0 / nr=0 / decimate=1 / interlaced=0 / constrained_intra=0 / bframes=6 / b_pyramid=2 / b_adapt=2 / b_bias=0 / direct=3 / weightb=1 / open_gop=0 / weightp=2 / keyint=250 / keyint_min=25 / scenecut=40 / intra_refresh=0 / rc_lookahead=40 / rc=2pass / mbtree=1 / bitrate=4841 / ratetol=1.0 / qcomp=0.60 / qpmin=10 / qpmax=51 / qpstep=4 / cplxblur=20.0 / qblur=0.5 / vbv_maxrate=50000 / vbv_bufsize=50000 / ip_ratio=1.40 / aq=1:0.80 / nal_hrd=none
Язык : English

Аудио #1
Идентификатор : 2
Формат : AC-3
Формат/Информация : Audio Coding 3
Расширение режима : CM (complete main)
Идентификатор кодека : A_AC3
Продолжительность : 1 ч. 52 м.
Вид битрейта : Постоянный
Битрейт : 128 Кбит/сек
Канал(ы) : 2 канала(ов)
Расположение каналов : Front: L R
Частота : 48,0 КГц
Битовая глубина : 16 бит
Метод сжатия : С потерями
Размер потока : 103 Мбайт (2%)
Заголовок : Russian @ DD 2.0 @ 128 kbps
Язык : Russian

Аудио #2
Идентификатор : 3
Формат : DTS
Формат/Информация : Digital Theater Systems
Идентификатор кодека : A_DTS
Продолжительность : 1 ч. 52 м.
Вид битрейта : Постоянный
Битрейт : 1510 Кбит/сек
Канал(ы) : 6 канала(ов)
Расположение каналов : Front: L C R, Side: L R, LFE
Частота : 48,0 КГц
Битовая глубина : 24 бит
Метод сжатия : С потерями
Размер потока : 1,19 Гбайт (23%)
Заголовок : English @ DTS 5.1 @ 1510 kbps
Язык : English



Свернуть
Скриншоты
Изображение
Изображение
Изображение
Изображение
Изображение
Изображение
Свернуть
_________________
Изображение
Изображение


Последний раз редактировалось Джокер 2011-11-05 15:33, всего редактировалось 2 раз(а).
Не в сети
Профиль  
 Добавлено: 2011-11-05 15:21 (спустя 41 минута)
Top-releaser
Стаж: 7 лет 4 месяца
Возраст: 33
Сообщений: 409
Спасибок: 6402
Лайков: 6
Посмотрел только что, не разочаровал и звук кстати норм
Не в сети
Профиль  
 Добавлено: 2011-11-05 15:31 (спустя 9 минут)
Аватара пользователя
Стаж: 7 лет 11 месяцев
Сообщений: 64
ДВД 5 будет?
Не в сети
Профиль  
 Добавлено: 2011-11-06 10:01 (спустя 18 часов)
Аватара пользователя
Стаж: 7 лет 2 месяца
Сообщений: 7167
Спасибок: 82017
Лайков: 2438
Супер! :ti_pa:
Не в сети
Профиль  
 Добавлено: 2011-11-12 11:56 (спустя 6 дней)
Аватара пользователя
Стаж: 8 лет 3 месяца
Возраст: 43
Сообщений: 3290
Спасибок: 21012
Лайков: 3
звук лицензия viewtopic.php?f=1750&t=435776
эту тему закрываю с последующим поглощением
_________________
Изображение
Не в сети
Профиль  
Начать новую темуЭта тема закрыта, вы не можете редактировать и оставлять сообщения в ней.  [ Сообщений: 5 ] 
Вы не можете начинать темы
Вы не можете отвечать на сообщения
Вы не можете редактировать свои сообщения
Вы не можете удалять свои сообщения