Правила форума

Здесь находятся раздачи, на которых не было полного источника (сида) более месяца.
Вы можете вернуть релиз в соответствующий раздел, для этого напишите нам в специальной теме и встаньте на раздачу.
Новые релизы, повторяющие релизы в архиве, повторами не считаются.
Начать новую темуОтветить на тему  [ Сообщений: 7 ] 
Сообщения
 Добавлено: 2011-04-16 12:47
Аватара пользователя
Стаж: 8 лет 9 месяцев
Возраст: 44
Сообщений: 2454
Спасибок: 6160
Изображение

Конец света (Баал - бог грозы) / Ba'al


«There'll Be Hell To Pay»

Год выпуска: 2008
Страна: США, Канада
Жанр: ужасы, фантастика, фэнтези, триллер, драма
Продолжительность: 01:27:01
Перевод: Профессиональный (двухголосый)
Режиссер: Пол Зиллер
Сценарий: Эндрю Блэк, Пол Зиллер
Продюсер: Ким Арнотт, Бриэнн Хартли, Линдсэй МакАдам
Оператор: Тодд Уильямс
Композитор: Пинар Торпак
В ролях: Джереми Лондон, Дерек Андерсон, Питер Бенсон, Johnny Cantiveros, Лекса Дойг, Скотт Хайлендс, Майкл Копса, Трой Ског, Найджел Вонас, Стефани Фон Пфеттен, Илайс Туфексис
Описание: Археолог Оуэн Стэнфорд неизлечимо болен раком. В поисках излечения, он, изучая древние легенды, решает найти амулеты бога бури Баала, для того чтобы открыть портал между этим миром и миром усопших. Стэнфорд надеется, что, таким образом, он излечится от своей болезни, а может даже станет одним из богов.
Амулет найден, и Стэнфорд выпускает бурю на волю. Мир становится на край катастрофы. Участники экспедиции безумного археолога, не знавшие ее цели решают попытаться остановить профессора и спасти мир!

Изображение
Изображение
MPAA: Изображение
Раздача группы: Изображение

Качество: DVD5
Формат: DVD Video
Видео: PAL 16:9 (720x576),8000 Kbps; 25 fps VBR
Аудио: Русский (Dolby AC3, 6 ch), 192 Kbps
MediaInfo
Общее
Полное имя : F:\Кино\Konec.sveta.2008.DVD-5[R.G.D]\VIDEO_TS\VIDEO_TS.BUP
Формат : DVD Video
Профиль формата : Menu
Размер файла : 16,0 Кбайт

Видео
Идентификатор : 224 (0xE0)
Формат : MPEG Video
Версия формата : Version 2
Вид битрейта : Переменный
Ширина : 720 пикс.
Высота : 576 пикс.
Соотношение сторон : 4:3
Частота кадров : 25,000 кадр/сек
Стандарт вещания : PAL
Метод сжатия : С потерями

Текст
Формат : RLE
Формат/Информация : Run-length encoding
Битовая глубина : 2 бит

Общее
Полное имя : F:\Кино\Konec.sveta.2008.DVD-5[R.G.D]\VIDEO_TS\VIDEO_TS.IFO
Формат : DVD Video
Профиль формата : Menu
Размер файла : 16,0 Кбайт

Видео
Идентификатор : 224 (0xE0)
Формат : MPEG Video
Версия формата : Version 2
Вид битрейта : Переменный
Ширина : 720 пикс.
Высота : 576 пикс.
Соотношение сторон : 4:3
Частота кадров : 25,000 кадр/сек
Стандарт вещания : PAL
Метод сжатия : С потерями

Текст
Формат : RLE
Формат/Информация : Run-length encoding
Битовая глубина : 2 бит

Общее
Полное имя : F:\Кино\Konec.sveta.2008.DVD-5[R.G.D]\VIDEO_TS\VIDEO_TS.VOB
Формат : MPEG-PS
Размер файла : 10,0 Кбайт
Продолжительность : 40 мс.
Общий поток : 2048 Кбит/сек

Видео
Идентификатор : 224 (0xE0)
Формат : MPEG Video
Версия формата : Version 2
Профиль формата : Main@Main
Параметр BVOP формата : Нет
Параметр матрицы формата : По умолчанию
Продолжительность : 40 мс.
Вид битрейта : Постоянный
Битрейт : 9000 Кбит/сек
Ширина : 720 пикс.
Высота : 576 пикс.
Соотношение сторон : 4:3
Частота кадров : 25,000 кадр/сек
Стандарт вещания : PAL
Цветовое пространство : YUV
Подвыборка цветности : 4:2:0
Битовая глубина : 8 бит
Тип развёртки : Прогрессивная
Порядок развёртки : Верхнее поле первое
Метод сжатия : С потерями
Бит/(Пиксели*Кадры) : 0.868
Размер потока : 43,9 Кбайт

Меню

Общее
Полное имя : F:\Кино\Konec.sveta.2008.DVD-5[R.G.D]\VIDEO_TS\VTS_01_0.BUP
Формат : DVD Video
Профиль формата : Program
Размер файла : 18,0 Кбайт
Продолжительность : 10 с.
Общий поток : 14,7 Кбит/сек

Видео
Идентификатор : 224 (0xE0)
Формат : MPEG Video
Версия формата : Version 2
Продолжительность : 10 с.
Вид битрейта : Переменный
Ширина : 720 пикс.
Высота : 576 пикс.
Соотношение сторон : 4:3
Частота кадров : 25,000 кадр/сек
Стандарт вещания : PAL
Метод сжатия : С потерями

Аудио
Идентификатор : 128 (0x80)
Формат : AC-3
Формат/Информация : Audio Coding 3
Продолжительность : 10 с.
Канал(ы) : 2 канала(ов)
Частота : 48,0 КГц
Метод сжатия : С потерями
Язык : Russian

Меню
Продолжительность : 10 с.
00:00:00.000 : Chapter 1
List (Audio) : 0

Общее
Полное имя : F:\Кино\Konec.sveta.2008.DVD-5[R.G.D]\VIDEO_TS\VTS_01_0.IFO
Формат : DVD Video
Профиль формата : Program
Размер файла : 18,0 Кбайт
Продолжительность : 10 с.
Общий поток : 14,7 Кбит/сек

Видео
Идентификатор : 224 (0xE0)
Формат : MPEG Video
Версия формата : Version 2
Продолжительность : 10 с.
Вид битрейта : Переменный
Ширина : 720 пикс.
Высота : 576 пикс.
Соотношение сторон : 4:3
Частота кадров : 25,000 кадр/сек
Стандарт вещания : PAL
Метод сжатия : С потерями

Аудио
Идентификатор : 128 (0x80)
Формат : AC-3
Формат/Информация : Audio Coding 3
Продолжительность : 10 с.
Канал(ы) : 2 канала(ов)
Частота : 48,0 КГц
Метод сжатия : С потерями
Язык : Russian

Меню
Продолжительность : 10 с.
00:00:00.000 : Chapter 1
List (Audio) : 0

Общее
Полное имя : F:\Кино\Konec.sveta.2008.DVD-5[R.G.D]\VIDEO_TS\VTS_01_0.VOB
Формат : MPEG-PS
Размер файла : 70,9 Мбайт
Продолжительность : 30 с.
Общий поток : 19,4 Мбит/сек

Видео
Идентификатор : 224 (0xE0)
Формат : MPEG Video
Версия формата : Version 2
Профиль формата : Main@Main
Параметр BVOP формата : Да
Параметр матрицы формата : По умолчанию
Продолжительность : 30 с.
Вид битрейта : Постоянный
Битрейт : 18,9 Мбит/сек
Ширина : 720 пикс.
Высота : 576 пикс.
Соотношение сторон : 4:3
Частота кадров : 25,000 кадр/сек
Стандарт вещания : PAL
Цветовое пространство : YUV
Подвыборка цветности : 4:2:0
Битовая глубина : 8 бит
Метод сжатия : С потерями
Бит/(Пиксели*Кадры) : 1.818
Размер потока : 68,8 Мбайт (97%)

Аудио
Идентификатор : 128 (0x80)
Формат : AC-3
Формат/Информация : Audio Coding 3
Расширение режима : CM (complete main)
Продолжительность : 30 с.
Вид битрейта : Постоянный
Битрейт : 192 Кбит/сек
Канал(ы) : 2 канала(ов)
Расположение каналов : Front: L R
Частота : 48,0 КГц
Битовая глубина : 16 бит
Метод сжатия : С потерями
Задержка видео : 36 мс.
Размер потока : 717 Кбайт (1%)

Текст
Идентификатор : 32 (0x20)
Формат : RLE
Формат/Информация : Run-length encoding
Задержка видео : 36 мс.

Меню

Общее
Полное имя : F:\Кино\Konec.sveta.2008.DVD-5[R.G.D]\VIDEO_TS\VTS_01_1.VOB
Формат : MPEG-PS
Размер файла : 9,72 Мбайт
Продолжительность : 10 с.
Общий поток : 8151 Кбит/сек

Видео
Идентификатор : 224 (0xE0)
Формат : MPEG Video
Версия формата : Version 2
Профиль формата : Main@Main
Параметр BVOP формата : Да
Параметр матрицы формата : По умолчанию
Параметры GOP формата : M=3, N=15
Продолжительность : 10 с.
Вид битрейта : Постоянный
Битрейт : 8000 Кбит/сек
Ширина : 720 пикс.
Высота : 576 пикс.
Соотношение сторон : 4:3
Частота кадров : 25,000 кадр/сек
Стандарт вещания : PAL
Цветовое пространство : YUV
Подвыборка цветности : 4:2:0
Битовая глубина : 8 бит
Тип развёртки : Чересстрочная
Порядок развёртки : Нижнее поле первое
Метод сжатия : С потерями
Бит/(Пиксели*Кадры) : 0.772
Размер потока : 9,37 Мбайт (96%)

Аудио
Идентификатор : 128 (0x80)
Формат : AC-3
Формат/Информация : Audio Coding 3
Расширение режима : CM (complete main)
Продолжительность : 10 с.
Вид битрейта : Постоянный
Битрейт : 128 Кбит/сек
Канал(ы) : 2 канала(ов)
Расположение каналов : Front: L R
Частота : 48,0 КГц
Битовая глубина : 16 бит
Метод сжатия : С потерями
Размер потока : 156 Кбайт (2%)

Меню

Общее
Полное имя : F:\Кино\Konec.sveta.2008.DVD-5[R.G.D]\VIDEO_TS\VTS_02_0.BUP
Формат : DVD Video
Профиль формата : Program
Размер файла : 56,0 Кбайт
Продолжительность : 1 ч. 27 м.
Общий поток : 87 бит/сек

Видео
Идентификатор : 224 (0xE0)
Формат : MPEG Video
Версия формата : Version 2
Продолжительность : 1 ч. 27 м.
Вид битрейта : Переменный
Ширина : 720 пикс.
Высота : 576 пикс.
Соотношение сторон : 16:9
Частота кадров : 25,000 кадр/сек
Стандарт вещания : PAL
Метод сжатия : С потерями

Аудио
Идентификатор : 128 (0x80)
Формат : AC-3
Формат/Информация : Audio Coding 3
Продолжительность : 1 ч. 27 м.
Канал(ы) : 6 канала(ов)
Частота : 48,0 КГц
Метод сжатия : С потерями
Язык : Russian

Меню
Продолжительность : 1 ч. 27 м.
00:00:00.000 : Chapter 1
00:07:46.240 : Chapter 2
00:18:42.440 : Chapter 3
00:29:13.600 : Chapter 4
00:35:30.680 : Chapter 5
00:43:06.720 : Chapter 6
00:57:27.560 : Chapter 7
01:09:14.520 : Chapter 8
01:16:36.080 : Chapter 9
List (Audio) : 0

Общее
Полное имя : F:\Кино\Konec.sveta.2008.DVD-5[R.G.D]\VIDEO_TS\VTS_02_0.IFO
Формат : DVD Video
Профиль формата : Program
Размер файла : 56,0 Кбайт
Продолжительность : 1 ч. 27 м.
Общий поток : 87 бит/сек

Видео
Идентификатор : 224 (0xE0)
Формат : MPEG Video
Версия формата : Version 2
Продолжительность : 1 ч. 27 м.
Вид битрейта : Переменный
Ширина : 720 пикс.
Высота : 576 пикс.
Соотношение сторон : 16:9
Частота кадров : 25,000 кадр/сек
Стандарт вещания : PAL
Метод сжатия : С потерями

Аудио
Идентификатор : 128 (0x80)
Формат : AC-3
Формат/Информация : Audio Coding 3
Продолжительность : 1 ч. 27 м.
Канал(ы) : 6 канала(ов)
Частота : 48,0 КГц
Метод сжатия : С потерями
Язык : Russian

Меню
Продолжительность : 1 ч. 27 м.
00:00:00.000 : Chapter 1
00:07:46.240 : Chapter 2
00:18:42.440 : Chapter 3
00:29:13.600 : Chapter 4
00:35:30.680 : Chapter 5
00:43:06.720 : Chapter 6
00:57:27.560 : Chapter 7
01:09:14.520 : Chapter 8
01:16:36.080 : Chapter 9
List (Audio) : 0

Общее
Полное имя : F:\Кино\Konec.sveta.2008.DVD-5[R.G.D]\VIDEO_TS\VTS_02_0.VOB
Формат : MPEG-PS
Размер файла : 10,0 Кбайт
Продолжительность : 40 мс.
Общий поток : 2048 Кбит/сек

Видео
Идентификатор : 224 (0xE0)
Формат : MPEG Video
Версия формата : Version 2
Профиль формата : Main@Main
Параметр BVOP формата : Нет
Параметр матрицы формата : По умолчанию
Продолжительность : 40 мс.
Вид битрейта : Постоянный
Битрейт : 9000 Кбит/сек
Ширина : 720 пикс.
Высота : 576 пикс.
Соотношение сторон : 4:3
Частота кадров : 25,000 кадр/сек
Стандарт вещания : PAL
Цветовое пространство : YUV
Подвыборка цветности : 4:2:0
Битовая глубина : 8 бит
Тип развёртки : Прогрессивная
Порядок развёртки : Верхнее поле первое
Метод сжатия : С потерями
Бит/(Пиксели*Кадры) : 0.868
Размер потока : 43,9 Кбайт

Меню

Общее
Полное имя : F:\Кино\Konec.sveta.2008.DVD-5[R.G.D]\VIDEO_TS\VTS_02_1.VOB
Формат : MPEG-PS
Размер файла : 1024 Мбайт
Продолжительность : 21 м.
Общий поток : 6523 Кбит/сек

Видео
Идентификатор : 224 (0xE0)
Формат : MPEG Video
Версия формата : Version 2
Профиль формата : Main@Main
Параметр BVOP формата : Да
Параметр матрицы формата : По умолчанию
Параметры GOP формата : M=3, N=15
Продолжительность : 21 м.
Вид битрейта : Переменный
Битрейт : 5945 Кбит/сек
Номинальный битрейт : 9000 Кбит/сек
Ширина : 720 пикс.
Высота : 576 пикс.
Соотношение сторон : 16:9
Частота кадров : 25,000 кадр/сек
Стандарт вещания : PAL
Цветовое пространство : YUV
Подвыборка цветности : 4:2:0
Битовая глубина : 8 бит
Тип развёртки : Чересстрочная
Порядок развёртки : Нижнее поле первое
Метод сжатия : С потерями
Бит/(Пиксели*Кадры) : 0.573
Размер потока : 933 Мбайт (91%)

Аудио
Идентификатор : 128 (0x80)
Формат : AC-3
Формат/Информация : Audio Coding 3
Расширение режима : CM (complete main)
Продолжительность : 21 м.
Вид битрейта : Постоянный
Битрейт : 448 Кбит/сек
Канал(ы) : 6 канала(ов)
Расположение каналов : Front: L C R, Side: L R, LFE
Частота : 48,0 КГц
Битовая глубина : 16 бит
Метод сжатия : С потерями
Размер потока : 70,3 Мбайт (7%)

Меню

Общее
Полное имя : F:\Кино\Konec.sveta.2008.DVD-5[R.G.D]\VIDEO_TS\VTS_02_2.VOB
Формат : MPEG-PS
Размер файла : 1024 Мбайт
Продолжительность : 21 м.
Общий поток : 6521 Кбит/сек

Видео
Идентификатор : 224 (0xE0)
Формат : MPEG Video
Версия формата : Version 2
Профиль формата : Main@Main
Параметр BVOP формата : Да
Параметр матрицы формата : По умолчанию
Параметры GOP формата : M=3, N=15
Продолжительность : 21 м.
Вид битрейта : Переменный
Битрейт : 5943 Кбит/сек
Номинальный битрейт : 9000 Кбит/сек
Ширина : 720 пикс.
Высота : 576 пикс.
Соотношение сторон : 16:9
Частота кадров : 25,000 кадр/сек
Стандарт вещания : PAL
Цветовое пространство : YUV
Подвыборка цветности : 4:2:0
Битовая глубина : 8 бит
Тип развёртки : Чересстрочная
Порядок развёртки : Нижнее поле первое
Метод сжатия : С потерями
Бит/(Пиксели*Кадры) : 0.573
Размер потока : 933 Мбайт (91%)

Аудио
Идентификатор : 128 (0x80)
Формат : AC-3
Формат/Информация : Audio Coding 3
Расширение режима : CM (complete main)
Продолжительность : 21 м.
Вид битрейта : Постоянный
Битрейт : 448 Кбит/сек
Канал(ы) : 6 канала(ов)
Расположение каналов : Front: L C R, Side: L R, LFE
Частота : 48,0 КГц
Битовая глубина : 16 бит
Метод сжатия : С потерями
Задержка видео : -88 мс.
Размер потока : 70,4 Мбайт (7%)

Меню

Общее
Полное имя : F:\Кино\Konec.sveta.2008.DVD-5[R.G.D]\VIDEO_TS\VTS_02_3.VOB
Формат : MPEG-PS
Размер файла : 1024 Мбайт
Продолжительность : 21 м.
Общий поток : 6525 Кбит/сек

Видео
Идентификатор : 224 (0xE0)
Формат : MPEG Video
Версия формата : Version 2
Профиль формата : Main@Main
Параметр BVOP формата : Да
Параметр матрицы формата : По умолчанию
Параметры GOP формата : M=3, N=15
Продолжительность : 21 м.
Вид битрейта : Переменный
Битрейт : 5948 Кбит/сек
Номинальный битрейт : 9000 Кбит/сек
Ширина : 720 пикс.
Высота : 576 пикс.
Соотношение сторон : 16:9
Частота кадров : 25,000 кадр/сек
Стандарт вещания : PAL
Цветовое пространство : YUV
Подвыборка цветности : 4:2:0
Битовая глубина : 8 бит
Тип развёртки : Чересстрочная
Порядок развёртки : Нижнее поле первое
Метод сжатия : С потерями
Бит/(Пиксели*Кадры) : 0.574
Размер потока : 933 Мбайт (91%)

Аудио
Идентификатор : 128 (0x80)
Формат : AC-3
Формат/Информация : Audio Coding 3
Расширение режима : CM (complete main)
Продолжительность : 21 м.
Вид битрейта : Постоянный
Битрейт : 448 Кбит/сек
Канал(ы) : 6 канала(ов)
Расположение каналов : Front: L C R, Side: L R, LFE
Частота : 48,0 КГц
Битовая глубина : 16 бит
Метод сжатия : С потерями
Задержка видео : -104 мс.
Размер потока : 70,3 Мбайт (7%)

Меню

Общее
Полное имя : F:\Кино\Konec.sveta.2008.DVD-5[R.G.D]\VIDEO_TS\VTS_02_4.VOB
Формат : MPEG-PS
Размер файла : 839 Мбайт
Продолжительность : 21 м.
Общий поток : 5542 Кбит/сек

Видео
Идентификатор : 224 (0xE0)
Формат : MPEG Video
Версия формата : Version 2
Профиль формата : Main@Main
Параметр BVOP формата : Да
Параметр матрицы формата : По умолчанию
Параметры GOP формата : M=3, N=15
Продолжительность : 21 м.
Вид битрейта : Переменный
Битрейт : 4984 Кбит/сек
Номинальный битрейт : 9000 Кбит/сек
Ширина : 720 пикс.
Высота : 576 пикс.
Соотношение сторон : 16:9
Частота кадров : 25,000 кадр/сек
Стандарт вещания : PAL
Цветовое пространство : YUV
Подвыборка цветности : 4:2:0
Битовая глубина : 8 бит
Тип развёртки : Чересстрочная
Порядок развёртки : Нижнее поле первое
Метод сжатия : С потерями
Бит/(Пиксели*Кадры) : 0.481
Размер потока : 755 Мбайт (90%)

Аудио
Идентификатор : 128 (0x80)
Формат : AC-3
Формат/Информация : Audio Coding 3
Расширение режима : CM (complete main)
Продолжительность : 21 м.
Вид битрейта : Постоянный
Битрейт : 448 Кбит/сек
Канал(ы) : 6 канала(ов)
Расположение каналов : Front: L C R, Side: L R, LFE
Частота : 48,0 КГц
Битовая глубина : 16 бит
Метод сжатия : С потерями
Задержка видео : -200 мс.
Размер потока : 67,9 Мбайт (8%)
Свернуть

Изображение


SAMPLE
Свернуть

"Знаете ли Вы, что..."
  • За эпизод, длящийся около минуты, Клаудия Шиффер получила гонорар в размере 200,000 фунтов стерлингов.
  • По первоначальному замыслу Роуэн Эткинсон должен был сыграть роль ангела.
  • Португальская актриса Лусия Мониц получила свою роль совершенно случайно. Ее близкий приятель, занимающийся подбором актеров, послал ее фотографии своему коллеге, осуществлявшему кастинг к картине. Вскоре Лусия получила приглашение, пришла на кинопробы и в тот же день ушла из кинопавильона с подписанным контрактом.
  • Шуточная песенка «Christmas is All Around», звучащая на протяжении всей картины, была действительно выпущена отдельным синглом, однако большого успеха (в отличии от фильма) не сыскала. Эта композиция стала кавер-версией к хиту группы Wet Wet Wet 1994 года, возглавлявшему хит-парад Британии на протяжении 15 недель.
  • Озеро, в котором плескались герои Лусии Мониц и Колина Ферта, в действительности было глубиной всего в 45 см, и актерам пришлось проявить немалую сноровку, чтобы на экране эта сцена выглядела достоверной. Кроме того, во время съемок этого эпизода Колин был жестоко искусан москитами, и актеру даже пришлось прибегнуть к услугам медиков.
  • Первые кадры фильма, представляющие собой многочисленные встречи близких в аэропорту, снимались без привлечения статистов. Съемочная группа расставила камеры в Хитроу и снимала случайных людей, у которых впоследствии спрашивали согласие на использование этих видеоматериалов в картине.
  • Релиз картины на DVD стал самым востребованным на территории Великобритании в 2004 году.
  • В школе изучения иностранных языков, где Джемми осваивает португальский, один из сидящих рядом студентов учит русский язык. Правда, произнесенная им по-русски фраза «Здесь много снега в этом году» сопровождается субтитром «Is this way to the train station?»
  • В результате монтажа было вырезано три сюжетных линии.
Свернуть
Скриншоты
Изображение

Изображение

Изображение

Изображение
Свернуть
_________________
Правила раздела "Игры для PC" [30.11.2011]

Исправили недочеты в релизе, пишите в ЛС любому модератору Игр с ссылкой на релиз
Не в сети
Профиль  
 Добавлено: 2011-05-02 08:18 (спустя 15 дней)
Стаж: 6 лет 3 месяца
Сообщений: 33
:ze_va_et: ерунда полнейшая
Не в сети
Профиль  
 Добавлено: 2012-06-21 21:07 (спустя 1 год 1 месяц)
Аватара пользователя
Стаж: 7 лет
Возраст: 25
Сообщений: 163
Спасибок: 217
Скачаем .
_________________
"Если человек отправляется от точки, в которой знание не помогает, он идет в направлении смысла"
Не в сети
Профиль  
 Добавлено: 2012-06-24 02:28 (спустя 2 дня 5 часов)
Аватара пользователя
Стаж: 7 лет
Возраст: 25
Сообщений: 163
Спасибок: 217
В принципе кому как, но мне фильм понравился )
Спасибо за раздачу.
_________________
"Если человек отправляется от точки, в которой знание не помогает, он идет в направлении смысла"
Не в сети
Профиль  
 Добавлено: 2012-06-24 02:48 (спустя 20 минут)
Кинознаток ННТТ
Аватара пользователя
Стаж: 7 лет 9 месяцев
Возраст: 25
Сообщений: 1258
Спасибок: 42
Лайков: 55
Последний скрин выдал цветопередачу канала ТВ3 ;;-)))
_________________
:exp_minus: :kav_boy: :ohot_nik:
Не в сети
Профиль  
 Добавлено: 2012-07-09 19:21 (спустя 15 дней)
Аватара пользователя
Стаж: 8 лет 5 месяцев
Возраст: 21
Сообщений: 260
Спасибок: 69
Мне кажется или раздел "знаете ли вы что..." относится к другому фильму. или это у меня такой глюк.
Не в сети
Профиль  
 Добавлено: 2012-07-12 07:37 (спустя 2 дня 12 часов)
Стаж: 8 лет 3 месяца
Сообщений: 52
смотрю на скрины и понимаю,что это типа ТВ3 :ps_ih:
Не в сети
Профиль  
Начать новую темуОтветить на тему  [ Сообщений: 7 ] 
Вы не можете начинать темы
Вы не можете отвечать на сообщения
Вы не можете редактировать свои сообщения
Вы не можете удалять свои сообщения