Правила форума

Здесь находятся раздачи, на которых не было полного источника (сида) более месяца.
Вы можете вернуть релиз в соответствующий раздел, для этого напишите нам в специальной теме и встаньте на раздачу.
Новые релизы, повторяющие релизы в архиве, повторами не считаются.
Начать новую темуОтветить на тему  [ Сообщений: 3 ] 
Сообщения
 Добавлено: 2011-07-04 19:34
Top-seeder
Аватара пользователя
Стаж: 9 лет
Сообщений: 1399
Спасибок: 28651
Лайков: 8
Корабль-призрак / Ghost Ship

Изображение

Перевод: Профессиональный (полное дублирование)
Субтитры: Русские, английские
Формат: BDRip 720p, MKV, H.264, AC3
Страна: США, Австралия
Режиссер: Стив Бек
Жанр: ужасы, триллер, детектив
Продолжительность: 01:30:43
Год выпуска: 2002
Изображение 7.003
В ролях: Гэбриел Бирн, Джулианна Маргулис. Рон Элдард, Десмонд Харрингтон, Айзэйя Вашингтон, Алекс Димитриадес, Карл Урбан, Эмили Браунинг, Франческа Реттондини, Борис Бркич

Описание: В отдаленной области Берингова моря команда спасателей обнаруживает останки огромного пассажирского лайнера, который считался погибшим более 40 лет назад. Оказавшись на борту судна, спасатели сталкиваются с жутким прошлым корабля и вынуждены вступить в смертельную схватку…

Видео: 1280x720 (16:9), 23,976 fps, AVC (x264), High@L4.1, ~5923 kbps, 0.268 bit/pixel
Аудио #1: Русский 48 kHz, AC3, 6 ch, 448 Kbps [Профессиональный (полное дублирование)]
Аудио #2: Русский 48 kHz, AC3, 6 ch, 448 Kbps [Профессиональный (многоголосый, закадровый)]
Аудио #3: Русский 48 kHz, AC3, 6 ch, 448 Kbps [Авторский (одноголосый), Ю.Живов]
Аудио #4: Английский 48 kHz, AC3, 6 ch, 640 Kbps [Оригинал]
MediaInfo
Общее
Уникальный идентификатор : 201784231342307187283858986982346229991 (0x97CE3AB656178144B13C17256ADA88E7)
Полное имя : D:\Закачки\Корабль-призрак.mkv
Формат : Matroska
Размер файла : 5,23 Гбайт
Продолжительность : 1 ч. 30 м.
Общий поток : 8249 Кбит/сек
Дата кодирования : UTC 2009-10-22 12:45:30
Программа кодирования : mkvmerge v2.9.8 ('C'est le bon') built on Aug 13 2009 12:49:06
Библиотека кодирования : libebml v0.7.7 + libmatroska v0.8.1

Видео
Идентификатор : 1
Формат : AVC
Формат/Информация : Advanced Video Codec
Профиль формата : High@L4.1
Параметр CABAC формата : Да
Параметр ReFrames формата : 6 кадров
Параметры GOP формата : N=1
Идентификатор кодека : V_MPEG4/ISO/AVC
Продолжительность : 1 ч. 30 м.
Битрейт : 6263 Кбит/сек
Ширина : 1280 пикс.
Высота : 720 пикс.
Соотношение сторон : 16:9
Частота кадров : 23,976 кадр/сек
Цветовое пространство : YUV
Подвыборка цветности : 4:2:0
Битовая глубина : 8 бит
Тип развёртки : Прогрессивная
Бит/(Пиксели*Кадры) : 0.283
Размер потока : 3,87 Гбайт (74%)
Заголовок : Ghost Ship (2002) DON
Библиотека кодирования : x264 core 77 r1280M 5cda2cf
Настройки программы : cabac=1 / ref=6 / deblock=1:-3:-3 / analyse=0x3:0x113 / me=umh / subme=10 / psy=1 / psy_rd=0.8:0.0 / mixed_ref=1 / me_range=64 / chroma_me=1 / trellis=2 / 8x8dct=1 / cqm=0 / deadzone=21,11 / chroma_qp_offset=-2 / threads=6 / nr=0 / decimate=1 / mbaff=0 / constrained_intra=0 / bframes=6 / b_pyramid=1 / b_adapt=2 / b_bias=0 / direct=3 / wpredb=1 / keyint=250 / keyint_min=25 / scenecut=40 / rc=2pass / mbtree=0 / bitrate=6263 / ratetol=1.0 / qcomp=0.60 / qpmin=10 / qpmax=51 / qpstep=4 / cplxblur=20.0 / qblur=0.5 / ip_ratio=1.40 / pb_ratio=1.30 / aq=1:0.80
Язык : English

Аудио #1
Идентификатор : 2
Формат : AC-3
Формат/Информация : Audio Coding 3
Расширение режима : CM (complete main)
Идентификатор кодека : A_AC3
Продолжительность : 1 ч. 30 м.
Вид битрейта : Постоянный
Битрейт : 448 Кбит/сек
Каналы : 6 каналов
Расположение каналов : Front: L C R, Side: L R, LFE
Частота : 48,0 КГц
Битовая глубина : 16 бит
Метод сжатия : С потерями
Размер потока : 291 Мбайт (5%)
Заголовок : AC3 5.1, 448 kbps (Дубляж)
Язык : Russian

Аудио #2
Идентификатор : 3
Формат : AC-3
Формат/Информация : Audio Coding 3
Расширение режима : CM (complete main)
Идентификатор кодека : A_AC3
Продолжительность : 1 ч. 30 м.
Вид битрейта : Постоянный
Битрейт : 448 Кбит/сек
Каналы : 6 каналов
Расположение каналов : Front: L C R, Side: L R, LFE
Частота : 48,0 КГц
Битовая глубина : 16 бит
Метод сжатия : С потерями
Размер потока : 291 Мбайт (5%)
Заголовок : AC3 5.1, 448 kbps (многоголосый, закадровый)
Язык : Russian

Аудио #3
Идентификатор : 4
Формат : AC-3
Формат/Информация : Audio Coding 3
Расширение режима : CM (complete main)
Идентификатор кодека : A_AC3
Продолжительность : 1 ч. 30 м.
Вид битрейта : Постоянный
Битрейт : 448 Кбит/сек
Каналы : 6 каналов
Расположение каналов : Front: L C R, Side: L R, LFE
Частота : 48,0 КГц
Битовая глубина : 16 бит
Метод сжатия : С потерями
Размер потока : 291 Мбайт (5%)
Заголовок : AC3 5.1, 448 kbps (Ю. Живов)
Язык : Russian

Аудио #4
Идентификатор : 5
Формат : AC-3
Формат/Информация : Audio Coding 3
Расширение режима : CM (complete main)
Идентификатор кодека : A_AC3
Продолжительность : 1 ч. 30 м.
Вид битрейта : Постоянный
Битрейт : 640 Кбит/сек
Каналы : 6 каналов
Расположение каналов : Front: L C R, Side: L R, LFE
Частота : 48,0 КГц
Битовая глубина : 16 бит
Метод сжатия : С потерями
Размер потока : 415 Мбайт (8%)
Заголовок : AC3 5.1, 640kbps
Язык : English

Текст #1
Идентификатор : 6
Формат : UTF-8
Идентификатор кодека : S_TEXT/UTF8
Идентификатор кодека/Информация : UTF-8 Plain Text
Язык : Russian

Текст #2
Идентификатор : 7
Формат : UTF-8
Идентификатор кодека : S_TEXT/UTF8
Идентификатор кодека/Информация : UTF-8 Plain Text
Язык : English

Свернуть
Показать скриншоты
ИзображениеИзображениеИзображениеИзображение
Свернуть
Не в сети
Профиль  
 Добавлено: 2011-07-04 20:01 (спустя 26 минут)
Аватара пользователя
Стаж: 8 лет 3 месяца
Возраст: 43
Сообщений: 3290
Спасибок: 21012
Лайков: 3
:ni_zia: центрирование всего текста запрещено :)
_________________
Изображение
Не в сети
Профиль  
 Добавлено: 2011-07-04 20:14 (спустя 12 минут)
Модератор
Аватара пользователя
Стаж: 8 лет 1 месяц
Возраст: 20
Сообщений: 32130
Спасибок: 98565
Лайков: 80
ужасный фильм. )
Не в сети
Профиль  
Начать новую темуОтветить на тему  [ Сообщений: 3 ] 
Вы не можете начинать темы
Вы не можете отвечать на сообщения
Вы не можете редактировать свои сообщения
Вы не можете удалять свои сообщения