Правила форума

Здесь находятся раздачи, на которых не было полного источника (сида) более месяца.
Вы можете вернуть релиз в соответствующий раздел, для этого напишите нам в специальной теме и встаньте на раздачу.
Новые релизы, повторяющие релизы в архиве, повторами не считаются.
Начать новую темуОтветить на тему  [ Сообщений: 4 ] 
Сообщения
 Добавлено: 2011-04-05 08:42
Аватара пользователя
Стаж: 8 лет 3 месяца
Возраст: 33
Сообщений: 613
Спасибок: 529
Лайков: 1
Король говорит!
The King's Speech


Изображение

Год выпуска: 2011
Страна: США, Великобритания, Австралия
Слоган: «When God couldn't save The King, The Queen turned to someone who could.»
Жанр: драма
Продолжительность: 01:58:00
Перевод: Профессиональный (дубляж)
Субтитры: Русские (полные), английские


Режиссёр: Том Хупер
Сценарист: Дэвид Сайдлер
Продюсер: Эмиль Шерман, Гарет Унвин, Айэйн Каннинг
Оператор: Дэниэл Коэн
Композитор: Александр Деспла
В ролях: Колин Фёрт, Хелена Бонем Картер, Джеффри Раш, Дерек Джекоби, Роберт Порталь, Ричард Диксон, Пол Трасселл, Эдриан Скарборо, Эндрю Хавилл, Чарльз Армстронг


Описание:

Сюжет ленты расскажет о герцоге, который готовится вступить в должность британского короля Георга VI, отца нынешней королевы Елизаветы II. После того, как его брат отрекается от престола, герой неохотно соглашается на трон. Измученный страшным нервным заиканием и сомнениями в своих способностях руководить страной, Георг обращается за помощью к неортодоксальному логопеду по имени Лайонел Лог. После серии неожиданных техник и в результате дружбы двух непохожих людей, герой наконец обретает свой королевский голос и смело ведет Англию на войну.


Оскар, 2011 год
Победитель (4):
* Лучший фильм
* Лучшая мужская роль (Колин Фёрт)
* Лучший режиссер (Том Хупер)
* Лучший сценарий
Номинации (8):
* Лучшая мужская роль второго плана (Джеффри Раш)
* Лучшая женская роль второго плана (Хелена Бонем Картер)
* Лучшая работа оператора
* Лучшие декорации
* Лучшие костюмы
* Лучший звук
* Лучший монтаж
* Лучший саундтрек


Качество: Blu-Ray Remux, 1080p | CHDBits
Формат: MKV
Видео кодек: H264 (AVC)
Аудио кодек: AC3 (Dolby Digital)
Видео: MPEG-4 AVC Video / 32567 kbps / 1920х1080p / 23.976 fps / 16:9 / High Profile 4.1
Аудио #1: AC-3 at 448 kb/s (6 ch) 48.0 KHz |Дубляж, R5|
Аудио #2: 5.1 / 48 kHz / 3319 kbps / 24-bit (DTS Core: 5.1 / 48 kHz / 1509 kbps / 24-bit / DN -4dB) |Оригинал|
Аудио #3: 192 kbps 2.0 / 48 kHz / 192 kbps / DN -4dB |Комментиарии режиссёра|
Субтитры: Русские (полные), английские

Скриншоты
Изображение

Изображение

Изображение

Изображение
Свернуть
МедиаИнфо
General
Complete name : I:\торренты\The.Kings.Speech.2010.BDRemux.1080p.AVC.DTS-HD.MA5.1.mkv
Format : Matroska
File size : 30.2 GiB
Duration : 1h 58mn
Overall bit rate : 36.5 Mbps
Encoded date : UTC 2011-04-04 08:33:47
Writing application : mkvmerge v4.4.0 ('Die Wiederkehr') сборка от Oct 31 2010 21:52:48
Writing library : libebml v1.0.0 + libmatroska v1.0.0

Video
ID : 1
Format : AVC
Format/Info : Advanced Video Codec
Format profile : High@L4.1
Format settings, CABAC : Yes
Format settings, ReFrames : 4 frames
Muxing mode : Container profile=Unknown@4.1
Codec ID : V_MPEG4/ISO/AVC
Duration : 1h 58mn
Width : 1 920 pixels
Height : 1 080 pixels
Display aspect ratio : 16:9
Frame rate : 23.976 fps
Resolution : 24 bits
Colorimetry : 4:2:0
Scan type : Progressive

Audio #1
ID : 2
Format : AC-3
Format/Info : Audio Coding 3
Codec ID : A_AC3
Duration : 1h 58mn
Bit rate mode : Constant
Bit rate : 448 Kbps
Channel(s) : 6 channels
Channel positions : Front: L C R, Surround: L R, LFE
Sampling rate : 48.0 KHz
Stream size : 380 MiB (1%)
Title : R5
Language : Russian

Audio #2
ID : 3
Format : DTS
Format/Info : Digital Theater Systems
Format profile : MA
Codec ID : A_DTS
Duration : 1h 58mn
Bit rate mode : Variable
Channel(s) : 6 channels
Channel positions : Front: L C R, Surround: L R, LFE
Sampling rate : 48.0 KHz
Resolution : 24 bits
Title : 3319 kbps 5.1 / 48 kHz

Audio #3
ID : 5
Format : AC-3
Format/Info : Audio Coding 3
Codec ID : A_AC3
Duration : 1h 58mn
Bit rate mode : Constant
Bit rate : 192 Kbps
Channel(s) : 2 channels
Channel positions : L R
Sampling rate : 48.0 KHz
Stream size : 163 MiB (1%)
Title : 2.0 / 48 kHz / 192 kbps / DN -4dB

Text #1
ID : 4
Format : UTF-8
Codec ID : S_TEXT/UTF8
Codec ID/Info : UTF-8 Plain Text
Language : Russian

Text #2
ID : 6
Format : UTF-8
Codec ID : S_TEXT/UTF8
Codec ID/Info : UTF-8 Plain Text

Menu
00:00:00.000 : en:00:00:00.000
00:05:17.900 : en:00:05:17.900
00:07:38.416 : en:00:07:38.416
00:12:16.485 : en:00:12:16.485
00:17:51.904 : en:00:17:51.904
00:29:17.422 : en:00:29:17.422
00:34:25.188 : en:00:34:25.188
00:38:44.196 : en:00:38:44.196
00:45:49.329 : en:00:45:49.329
00:56:05.236 : en:00:56:05.236
01:00:56.069 : en:01:00:56.069
01:05:03.524 : en:01:05:03.524
01:11:48.512 : en:01:11:48.512
01:14:32.885 : en:01:14:32.885
01:16:46.018 : en:01:16:46.018
01:21:24.879 : en:01:21:24.879
01:23:35.385 : en:01:23:35.385
01:31:03.875 : en:01:31:03.875
01:33:46.662 : en:01:33:46.662
01:41:48.769 : en:01:41:48.769
01:48:16.740 : en:01:48:16.740
01:51:33.561 : en:01:51:33.561
Свернуть


Последний раз редактировалось Antocha 2011-04-08 16:28, всего редактировалось 1 раз.
Не в сети
Профиль  
 Добавлено: 2011-04-06 19:40 (спустя 1 день 10 часов)
Аватара пользователя
Стаж: 8 лет 3 месяца
Возраст: 33
Сообщений: 613
Спасибок: 529
Лайков: 1
Я вот что-то не пойму, релизы которые появились позднее моего уже проверены, а мой валяется не нужным никому вторые сутки...Как вообще и по какому принципу модер.составом проверяются релизы?
Не в сети
Профиль  
 Добавлено: 2011-04-08 04:41 (спустя 1 день 9 часов)
Аватара пользователя
Стаж: 8 лет 6 месяцев
Возраст: 38
Сообщений: 1674
Спасибок: 16600
Лайков: 5
Перезалейте скриншоты.
Правила создания релизов в разделах DVD и HD, Зарубежное кино, Наше кино, Арт-хаус и авторское кино [ОБНОВЛЕНО 10.01.2011]
Пункт 10.
Скриншоты должны адекватно отражать качество видео, то есть по разрешению в точности совпадать с разрешением видео и не содержать счетчиков, надписей и т.п., которых нет на видео.
Не в сети
Профиль  
 Добавлено: 2011-04-08 16:28 (спустя 11 часов)
Аватара пользователя
Стаж: 8 лет 3 месяца
Возраст: 33
Сообщений: 613
Спасибок: 529
Лайков: 1
Bearn

Исправлено.
Не в сети
Профиль  
Начать новую темуОтветить на тему  [ Сообщений: 4 ] 
Вы не можете начинать темы
Вы не можете отвечать на сообщения
Вы не можете редактировать свои сообщения
Вы не можете удалять свои сообщения