Правила форума

Здесь находятся раздачи, на которых не было полного источника (сида) более месяца.
Вы можете вернуть релиз в соответствующий раздел, для этого напишите нам в специальной теме и встаньте на раздачу.
Новые релизы, повторяющие релизы в архиве, повторами не считаются.
Начать новую темуОтветить на тему  [ 1 сообщение ] 
Сообщения
 Добавлено: 2009-11-01 19:21
Аватара пользователя
Стаж: 7 лет 6 месяцев
Сообщений: 56
Спасибок: 163
Кошелек или жизнь
Trick 'r Treat


Изображение


Год выпуска: 2009
Страна: США, Канада [tab][tab]Изображение [tab][tab]Изображение
Жанр: ужасы, триллер, комедия, драма
Продолжительность: 01:22:21
Перевод: Профессиональный (полное дублирование)
Режиссер: Майкл Догерти / Michael Dougherty
В ролях: Куинн Лорд, Брайан Кокс, Дилан Бейкер, Лесли Бибб, Рошелль Эйтс, Анна Пакуин, Монека Делэйн, Тамох Пеникетт, Лоурен Ли Смит, Бритт МакКилип.
Описание: В четырех пересекающихся друг с другом историях герои нарушают традиции Хэллоуина, наживая себе большие неприятности. Мы познакомимся с учителем, на деле являющимся серийным убийцей; девственницей-студенткой, ждущей своего принца; семейной парой, в которой муж обожает День Всех Святых, а жена не разделяет его восторгов; и группой подростков, задумавших жестокий розыгрыш.


Рейтинг: Изображение


Качество: BDRip
Формат: MKV
Видео кодек: H.264
Аудио кодек: AC3, DTS
Видео: 1280x528 at 23.976 fps, x264, ~7122 Kbps avg
Аудио #1: (RUS) 48 kHz, AC3, 3/2 (L,C,R,l,r) + LFE ch, ~384.00 kbps avg
Аудио #2: (ENG) 48 kHz, DTS, 3/2 (L,C,R,l,r) + LFE ch, ~1536.00 kbps avg
Субтитры: Rus, Eng, Ukr
"MediaInfo"
General
Complete name : D:\HD - Зарубежное кино\Кошелек или жизнь - Trick 'r Treat [2008] 720p BDRip.mkv
Format : Matroska
File size : 5.19 GiB
Duration : 1h 22mn
Overall bit rate : 9 016 Kbps
Movie name : Trick'r'Treat (2008) - Release for HDCLUB
Encoded date : UTC 2009-10-31 14:49:53
Writing application : mkvmerge v2.9.7 ('Tenderness') built on Jul 1 2009 18:43:35
Writing library : libebml v0.7.7 + libmatroska v0.8.1

Video
ID : 1
Format : AVC
Format/Info : Advanced Video Codec
Format profile : High@L4.1
Format settings, CABAC : Yes
Format settings, ReFrames : 12 frames
Muxing mode : Container profile=Unknown@4.1
Codec ID : V_MPEG4/ISO/AVC
Duration : 1h 22mn
Bit rate : 6 943 Kbps
Nominal bit rate : 7 122 Kbps
Width : 1 280 pixels
Height : 528 pixels
Display aspect ratio : 2.40:1
Frame rate : 23.976 fps
Resolution : 24 bits
Colorimetry : 4:2:0
Scan type : Progressive
Bits/(Pixel*Frame) : 0.428
Stream size : 3.99 GiB (77%)
Title : Release for HDCLUB
Writing library : x264 core 68 r1183M f21daff
Encoding settings : cabac=1 / ref=12 / deblock=1:-1:-1 / analyse=0x3:0x113 / me=umh / subme=9 / psy_rd=1.0:0.0 / mixed_ref=1 / me_range=16 / chroma_me=1 / trellis=2 / 8x8dct=1 / cqm=0 / deadzone=21,11 / chroma_qp_offset=-2 / threads=1 / nr=0 / decimate=1 / mbaff=0 / bframes=3 / b_pyramid=0 / b_adapt=2 / b_bias=0 / direct=3 / wpredb=1 / keyint=250 / keyint_min=25 / scenecut=40 / rc=2pass / bitrate=7122 / ratetol=1.0 / qcomp=0.60 / qpmin=10 / qpmax=51 / qpstep=4 / cplxblur=20.0 / qblur=0.5 / vbv_maxrate=50000 / vbv_bufsize=50000 / ip_ratio=1.40 / pb_ratio=1.30 / aq=1:1.00
Language : English

Audio #1
ID : 2
Format : AC-3
Format/Info : Audio Coding 3
Codec ID : A_AC3
Duration : 1h 22mn
Bit rate mode : Constant
Bit rate : 384 Kbps
Channel(s) : 6 channels
Channel positions : Front: L C R, Surround: L R, LFE
Sampling rate : 48.0 KHz
Stream size : 226 MiB (4%)
Title : AC3 5.1 @ 384 kbps - Дублированный
Language : Russian

Audio #2
ID : 3
Format : DTS
Format/Info : Digital Theater Systems
Codec ID : A_DTS
Duration : 1h 22mn
Bit rate mode : Constant
Bit rate : 1 510 Kbps
Channel(s) : 6 channels
Channel positions : Front: L C R, Surround: L R, LFE
Sampling rate : 48.0 KHz
Resolution : 24 bits
Stream size : 890 MiB (17%)
Title : DTS 5.1 @ 1536 kbps
Language : English

Text #1
ID : 4
Format : UTF-8
Codec ID : S_TEXT/UTF8
Codec ID/Info : UTF-8 Plain Text
Language : Russian

Text #2
ID : 5
Format : UTF-8
Codec ID : S_TEXT/UTF8
Codec ID/Info : UTF-8 Plain Text
Language : Ukrainian

Text #3
ID : 6
Format : UTF-8
Codec ID : S_TEXT/UTF8
Codec ID/Info : UTF-8 Plain Text
Language : English
Свернуть

"Скриншоты"
Изображение
Изображение
Изображение
Изображение
Изображение
Свернуть


[tab]Источник: Изображение
Изображение


Последний раз редактировалось Fitnessliker 2009-11-02 06:43, всего редактировалось 2 раз(а).
Не в сети
Профиль  
Начать новую темуОтветить на тему  [ 1 сообщение ] 
Вы не можете начинать темы
Вы не можете отвечать на сообщения
Вы не можете редактировать свои сообщения
Вы не можете удалять свои сообщения