Правила форума

Здесь находятся раздачи, на которых не было полного источника (сида) более месяца.
Вы можете вернуть релиз в соответствующий раздел, для этого напишите нам в специальной теме и встаньте на раздачу.
Новые релизы, повторяющие релизы в архиве, повторами не считаются.
Начать новую темуОтветить на тему  [ Сообщений: 4 ] 
Сообщения
 Добавлено: 2010-11-18 14:52
Модератор
Аватара пользователя
Стаж: 8 лет 1 месяц
Возраст: 20
Сообщений: 32130
Спасибок: 98569
Лайков: 80

Кошки против собак: Месть Китти Галор / Cats & Dogs: The Revenge of Kitty Galore

Изображение

Страна: США, Австралия
Студия: Warner Bros. Pictures, Village Roadshow Pictures
Жанр: триллер
Год выпуска: 2010
Продолжительность: 01:22:19
Перевод: Профессиональный (полное дублироване) [лицензия]
Режиссер: Брэд Пейтон / Brad Peyton
В ролях: Джеймс Марсден, Ник Нолти, Кристина Эпплгейт, Кэт Уильямс, Бетт Мидлер, Нил Патрик Харрис, Шон Хейс, Уоллес Шоун, Роджер Мур, Джо Пантольяно...
Описание: В старом как мир противостоянии кошек и собак одна съехавшая с катушек кошачья особа зашла слиш-ш-шком далеко. Китти Галор, в прошлом агент шпионской организации МЯУС, вышла из подчинения и замыслила дьявольский план, чтобы не только прижать к когтю своих собачьих недругов, но и нанести поражение своим бывшим кошачьим соратникам и прибрать в свои загребущие лапы власть над миром. Столкнувшись с беспрецедентной угрозой, кошки и собаки вынуждены впервые в истории объединить силы, заключив весьма неожиданный союз ради собственного спасения и спасения нас, людей, в новом фильме «Кошки против собак: Месть Китти Галор» — 3D комедии, которая сочетает игровые съемки, ультрасовременную аниматронику и компьютерную анимацию. Битва до последнего клочка шерсти начинается!
Изображение
Изображение
Тип релиза: BDRip 1080p, источник: Cats.and.Dogs.The.Revenge.of.Kitty.Galore.1080p.BluRay.x264-CROSSBOW, звук из релиза группы Изображение
Контейнер: MKV
Видео: 1920x1080 (16:9), 23.976 fps, H264 ~9890 kbps avg, 0.199 bit/pixel
Аудио : Русский, 48 kHz, AC3, 6 ch, 384.00 kbps Constant
Аудио 2: Английский, 48 kHz, DTS, 6 ch, 1510.00 kbps Constant
Формат субтитров: SoftSub (srt)
Раздача группы: Изображение

MediaInfo
General
Complete name : Koshki.protiv.sobak.Mest.Kitti.Galor.2010.D.BDRip.1080p.mkv
Format : Matroska
File size : 6.78 GiB
Duration : 1h 22mn
Overall bit rate : 11.8 Mbps
Movie name : avproh
Encoded date : UTC 2010-11-17 17:17:01
Writing application : mkvmerge v4.1.1 ('Bouncin' Back') сборка от Jul 3 2010 22:54:08
Writing library : libebml v1.0.0 + libmatroska v1.0.0
Video
ID : 1
Format : AVC
Format/Info : Advanced Video Codec
Format profile : High@L4.1
Format settings, CABAC : Yes
Format settings, ReFrames : 4 frames
Format settings, GOP : M=4, N=32
Codec ID : V_MPEG4/ISO/AVC
Duration : 1h 22mn
Bit rate : 9 890 Kbps
Width : 1 920 pixels
Height : 1 080 pixels
Display aspect ratio : 16:9
Frame rate : 23.976 fps
Color space : YUV
Chroma subsampling : 4:2:0
Bit depth : 8 bits
Scan type : Progressive
Bits/(Pixel*Frame) : 0.199
Stream size : 5.55 GiB (82%)
Writing library : x264 core 107 r1745 4785e8e
Encoding settings : cabac=1 / ref=4 / deblock=1:0:0 / analyse=0x3:0x113 / me=umh / subme=7 / psy=1 / psy_rd=1.00:0.15 / mixed_ref=1 / me_range=16 / chroma_me=1 / trellis=1 / 8x8dct=1 / cqm=0 / deadzone=21,11 / fast_pskip=0 / chroma_qp_offset=-3 / threads=6 / sliced_threads=0 / nr=0 / decimate=1 / interlaced=0 / constrained_intra=0 / bframes=3 / b_pyramid=2 / b_adapt=1 / b_bias=0 / direct=1 / weightb=1 / open_gop=0 / weightp=2 / keyint=250 / keyint_min=23 / scenecut=40 / intra_refresh=0 / rc_lookahead=40 / rc=2pass / mbtree=1 / bitrate=9890 / ratetol=1.0 / qcomp=0.60 / qpmin=10 / qpmax=51 / qpstep=4 / cplxblur=20.0 / qblur=0.5 / ip_ratio=1.40 / aq=1:1.00
Language : English
Audio #1
ID : 2
Format : AC-3
Format/Info : Audio Coding 3
Mode extension : CM (complete main)
Codec ID : A_AC3
Duration : 1h 22mn
Bit rate mode : Constant
Bit rate : 384 Kbps
Channel(s) : 6 channels
Channel positions : Front: L C R, Side: L R, LFE
Sampling rate : 48.0 KHz
Bit depth : 16 bits
Stream size : 226 MiB (3%)
Language : Russian
Audio #2
ID : 3
Format : DTS
Format/Info : Digital Theater Systems
Codec ID : A_DTS
Duration : 1h 22mn
Bit rate mode : Constant
Bit rate : 1 510 Kbps
Channel(s) : 6 channels
Channel positions : Front: L C R, Side: L R, LFE
Sampling rate : 48.0 KHz
Bit depth : 24 bits
Stream size : 889 MiB (13%)
Language : English
Text
ID : 4
Format : UTF-8
Codec ID : S_TEXT/UTF8
Codec ID/Info : UTF-8 Plain Text
Language : English
Свернуть
Скриншоты
Изображение

Изображение

Изображение

Изображение
Свернуть
Не в сети
Профиль  
 Добавлено: 2010-11-20 14:41 (спустя 1 день 23 часа)
Стаж: 7 лет 8 месяцев
Сообщений: 1
Вместо торрент фала лежит файл PDF.
Скачать нет возможности!
Не в сети
Профиль  
 Добавлено: 2010-11-20 15:52 (спустя 1 час 10 минут)
Модератор
Аватара пользователя
Стаж: 8 лет 1 месяц
Возраст: 20
Сообщений: 32130
Спасибок: 98569
Лайков: 80
:ps_ih: не возможно такое
Не в сети
Профиль  
 Добавлено: 2010-12-01 19:18 (спустя 11 дней)
Аватара пользователя
Стаж: 6 лет
Сообщений: 13
жалко фильм не долго идёт((
Не в сети
Профиль  
Начать новую темуОтветить на тему  [ Сообщений: 4 ] 
Вы не можете начинать темы
Вы не можете отвечать на сообщения
Вы не можете редактировать свои сообщения
Вы не можете удалять свои сообщения