Правила форума

Здесь находятся раздачи, на которых не было полного источника (сида) более месяца.
Вы можете вернуть релиз в соответствующий раздел, для этого напишите нам в специальной теме и встаньте на раздачу.
Новые релизы, повторяющие релизы в архиве, повторами не считаются.
Начать новую темуОтветить на тему  [ Сообщений: 2 ] 
Сообщения
 Добавлено: 2012-10-19 11:51
Аватара пользователя
Стаж: 7 лет 4 месяца
Возраст: 21
Сообщений: 419
Спасибок: 12706
Лайков: 18
Изображение
Космополис / Cosmopolis


Год выпуска: 2012
Страна: Канада, Франция, Италия, Португалия
Жанр: Триллер, драма
Продолжительность: 01:48:51
Перевод: Профессиональный (полное дублирование) [Лицензия]

Режиссер: Дэвид Кроненберг
Сценарий: Дэвид Кроненберг, Дон ДеЛилло
Продюсер: Паулу Бранку, Мартин Кац, Джозеф Боччиа
Оператор: Питер Сушицки
Композитор: Говард Шор

В ролях: Роберт Паттинсон, Сара Гадон, Пол Джаматти, Кевин Дюран, Абдул Айула, Жюльетт Бинош, Эмили Хэмпшир, Боб Бэйнборо, Саманта Мортон, Желько Кесойевич, Джей Барушель, Филлип Нозука, Матье Амальрик, Патриция МакКензи, Райан Келли, Надим Умар-Хитаб, Альберт Гомез, Гучи Бой, Дэвид Шаап, Уоррен Чоу, Джордж Тулиатос, Джейдин Вонг, К’Наан, Инесса Франтовски, Джонатан Сейнен, Милтон Барнс, Джон Баткис, Саад Сиддикуи, Анна Хардвик, Мария Хуан Гарсиаз, Полетт Синклер

Описание: 24 часа из жизни 28-летнего миллиардера-финансиста Эрика Пэкера, который изменяет своей молодой жене, подвергается нападению и разом теряет все свое состояние. Действие ленты будет разворачиваться на Манхэттене в течение одних суток.

Раздача: Изображение


kinopoisk.ru: 4.787 (6 473)
imdb.com: 5.60 (10 717)


Бюджет: $20 500 000
Сборы в США: $763 556
Сборы в мире: $6 063 556
Мировая премьера: 25 мая 2012
Премьера РФ: 19 июля 2012, «Top Film Distribution»
Релиз на DVD: 6 сентября 2012, «Новый Диск», «New Dream media»

Качество: BDRip [1080p]
Формат: Matroska
Видео: 1920x1040, 5359 Кбит/сек, 24,000 кадр/сек, AVC, x264, 16:9, 0.112 Бит/[Пиксели*Кадры], 2pass
Аудио: AC-3, 384 Кбит/сек, 6 канала(ов), 48,0 КГц


Изображение

Знаете ли вы, что...
  • Колин Фаррел изначально должен был сниматься в фильме, но покинул проект из-за несогласованности расписаний съемок с фильмом «Вспомнить всё» (2012). В итоге его место занял Роберт Паттинсон.
  • Марион Котийяр должна была сниматься в фильме, но отказалась в связи с беременностью.
  • После того как проект покинула Марион Котийяр, на ее место рассматривались кандидатуры Нуми Рапас и Киры Найтли.
  • Дэвид Кроненберг написал сценарий за шесть дней.
Свернуть


Награды:
Изображение
  • Каннский кинофестиваль, 2012 год:
    Номинации (1):
  • Золотая пальмовая ветвь
Свернуть


MediaInfo:
Общее
Уникальный идентификатор : 221214889487572414248651292215618014143 (0xA66C701F833478D48490534F48838BBF)
Полное имя : D:TorrentCosmopolis.2012.x264.BDRip.1080p.DUB.mkv
Формат : Matroska
Версия формата : Version 2
Размер файла : 4,37 Гбайт
Продолжительность : 1 ч. 48 м.
Общий поток : 5741 Кбит/сек
Дата кодирования : UTC 2012-10-19 02:33:59
Программа кодирования : mkvmerge v5.5.0 ('Healer') built on Apr 6 2012 21:43:24
Библиотека кодирования : libebml v1.2.3 + libmatroska v1.3.0

Видео
Идентификатор : 1
Формат : AVC
Формат/Информация : Advanced Video Codec
Профиль формата : High@L4.0
Параметр CABAC формата : Да
Параметр ReFrames формата : 4 кадра
Идентификатор кодека : V_MPEG4/ISO/AVC
Продолжительность : 1 ч. 48 м.
Битрейт : 5359 Кбит/сек
Ширина : 1920 пикселей
Высота : 1040 пикселей
Соотношение сторон : 16:9
Соотношение сторон в оригинале : 16:9
Частота кадров : 24,000 кадра/сек
Цветовое пространство : YUV
Субдискретизация насыщенности : 4:2:0
Битовая глубина : 8 бит
Тип развёртки : Прогрессивная
Бит/(Пиксели*Кадры) : 0.112
Размер потока : 3,99 Гбайт (91%)
Заголовок : Космополис
Библиотека кодирования : x264 core 128 r2216 198a7ea
Настройки программы : cabac=1 / ref=4 / deblock=1:0:0 / analyse=0x3:0x133 / me=hex / subme=7 / psy=1 / psy_rd=1.00:0.00 / mixed_ref=1 / me_range=16 / chroma_me=1 / trellis=1 / 8x8dct=1 / cqm=0 / deadzone=21,11 / fast_pskip=1 / chroma_qp_offset=-2 / threads=12 / lookahead_threads=2 / sliced_threads=0 / nr=0 / decimate=1 / interlaced=0 / bluray_compat=0 / constrained_intra=0 / bframes=3 / b_pyramid=2 / b_adapt=1 / b_bias=0 / direct=1 / weightb=1 / open_gop=0 / weightp=2 / keyint=240 / keyint_min=24 / scenecut=40 / intra_refresh=0 / rc_lookahead=40 / rc=2pass / mbtree=1 / bitrate=5359 / ratetol=1.0 / qcomp=0.60 / qpmin=10 / qpmax=51 / qpstep=4 / cplxblur=20.0 / qblur=0.5 / ip_ratio=1.40 / aq=1:1.00
Язык : English
Default : Да
Forced : Нет

Аудио
Идентификатор : 2
Формат : AC-3
Формат/Информация : Audio Coding 3
Расширение режима : CM (complete main)
Идентификатор кодека : A_AC3
Продолжительность : 1 ч. 48 м.
Вид битрейта : Постоянный
Битрейт : 384 Кбит/сек
Каналы : 6 каналов
Расположение каналов : Front: L C R, Side: L R, LFE
Частота : 48,0 КГц
Битовая глубина : 16 бит
Метод сжатия : С потерями
Размер потока : 299 Мбайт (7%)
Заголовок : Дублированный
Язык : Russian
Default : Да
Forced : Нет
Свернуть


Скриншоты:


Изображение


Изображение


Изображение


Свернуть
Не в сети
Профиль  
 Добавлено: 2012-10-19 21:27 (спустя 9 часов)
Аватара пользователя
Стаж: 7 лет 11 месяцев
Сообщений: 786
Спасибок: 25
Лайков: 9
;) Cпасибо
Не в сети
Профиль  
Начать новую темуОтветить на тему  [ Сообщений: 2 ] 
Вы не можете начинать темы
Вы не можете отвечать на сообщения
Вы не можете редактировать свои сообщения
Вы не можете удалять свои сообщения