Правила форума

Здесь находятся раздачи, на которых не было полного источника (сида) более месяца.
Вы можете вернуть релиз в соответствующий раздел, для этого напишите нам в специальной теме и встаньте на раздачу.
Новые релизы, повторяющие релизы в архиве, повторами не считаются.
Начать новую темуОтветить на тему  [ Сообщений: 3 ] 
Сообщения
 Добавлено: 2011-04-02 10:02
Модератор релиз-группы
Аватара пользователя
Стаж: 9 лет 1 месяц
Возраст: 97
Сообщений: 11659
Спасибок: 6532
Лайков: 269
Красная жара / Red Heat

Изображение


Год выпуска: 1988
Страна: США (Carolco Pictures)
Жанр: боевик, триллер, комедия, криминал
Продолжительность: 01:44:09
Перевод: Профессиональный (многоголосый закадровый)
Профессиональный (vногоголосый закадровый) Карусель
Дмитрий "Гоблин" Пучков (одноголосый, закадровый)
Авторский одноголосый (Гаврилов)
Авторский одноголосый (Горчаков)
Авторский одноголосый (Живов)
Оригинальная звуковая дорожка
Субтитры: Русские, Английские (SRT)

Режиссёр: Уолтер Хилл / Walter Hill
В ролях: Арнольд Шварценеггер , Джеймс Белуши , Питер Бойл , Джина Гершон , Эд О'Росс , Савелий Крамаров, Олег Видов, Лоуренс Фишберн
Описание: В доперестроечные времена торговля наркотиками была из ряда вон выходящим преступлением. На борьбу с грузинским мафиози, который используя все связи США, пытается пристрастить к кокаину советских граждан, выходит гроза преступного мира милиционер Иван Данко.
Этот парень не любит шутить, и доказательством серьезности его намерений служат большие мускулы и пистолет. Чтобы арестовать бандита, Иван направляется в Чикаго — рассадник капиталистической заразы. Там его помощником становится болтливый полицейский. Вместе они обезвреживают мафиози, разрушив при этом полгорода и расстреляв пару десятков негодяев.


Изображение

Качество: BDRip, 1080p
Формат: MKV
Видео кодек: H264 (AVC)
Аудио кодек: DTS/AC3
Видео: 1920x1040p, 24.00 fps, H264, ~13752 Kbps, DXVA
Аудио #1: Русский: DTS 5.1, 48 kHz @ 1536 kbps [Профессиональный (многоголосый закадровый)]
Аудио #2: Русский: AC3 5.1, 48 kHz @ 640 kbps [Профессиональный (vногоголосый закадровый)Карусель]
Аудио #3: Русский: AC3 5.1, 48 kHz @ 448 kbps [Дмитрий "Гоблин" Пучков (одноголосый, закадровый)]
Аудио #4: Русский: AC3 5.1, 48 kHz @ 448 kbps [Авторский одноголосый (Гаврилов)]
Аудио #5: Русский: AC3 5.1, 48 kHz @ 640 kbps [Авторский одноголосый (Горчаков)]
Аудио #6: Русский: AC3 5.1, 48 kHz @ 640 kbps [Авторский одноголосый (Живов)]
Аудио #7: Английский: DTS 5.1, 48 kHz @ 1536 kbps [Оригинальная звуковая дорожка]
Субтитры: Русские, Английские (SRT)
Скриншоты
Изображение

Изображение

Изображение

Изображение
Свернуть

Mi
Format : Matroska
File size : 14.5 GiB
Duration : 1h 44mn
Overall bit rate : 19.9 Mbps
Movie name : -=DKom=-
Encoded date : UTC 2010-08-18 04:19:40
Writing application : mkvmerge v3.4.0 ('Rapunzel') built on May 15 2010 09:38:20
Writing library : libebml v0.8.0 + libmatroska v0.9.0

Video
ID : 1
Format : AVC
Format/Info : Advanced Video Codec
Format profile : High@L4.1
Format settings, CABAC : Yes
Format settings, ReFrames : 4 frames
Codec ID : V_MPEG4/ISO/AVC
Duration : 1h 44mn
Bit rate : 13.8 Mbps
Width : 1 920 pixels
Height : 1 040 pixels
Display aspect ratio : 16:9
Frame rate : 24.000 fps
Color space : YUV
Chroma subsampling : 4:2:0
Bit depth : 8 bits
Scan type : Progressive
Bits/(Pixel*Frame) : 0.287
Stream size : 9.96 GiB (69%)
Title : Red Heat, 1988, 1080p, BDRip (CEE), -=DKom=-
Writing library : x264 core 92 r1510 33d382a
Encoding settings : cabac=1 / ref=4 / deblock=1:-3:-3 / analyse=0x3:0x133 / me=umh / subme=10 / psy=1 / psy_rd=1.06:0.10 / mixed_ref=1 / me_range=64 / chroma_me=1 / trellis=2 / 8x8dct=1 / cqm=0 / deadzone=21,11 / fast_pskip=0 / chroma_qp_offset=-3 / threads=3 / sliced_threads=0 / nr=0 / decimate=1 / interlaced=0 / constrained_intra=0 / bframes=7 / b_pyramid=2 / b_adapt=2 / b_bias=0 / direct=3 / wpredb=1 / wpredp=2 / keyint=250 / keyint_min=25 / scenecut=40 / intra_refresh=0 / rc_lookahead=40 / rc=2pass / mbtree=1 / bitrate=13752 / ratetol=1.0 / qcomp=0.60 / qpmin=10 / qpmax=51 / qpstep=4 / cplxblur=20.0 / qblur=0.5 / vbv_maxrate=30000 / vbv_bufsize=30000 / ip_ratio=1.40 / aq=1:1.00 / nal_hrd=none
Language : English

Audio #1
ID : 2
Format : DTS
Format/Info : Digital Theater Systems
Codec ID : A_DTS
Duration : 1h 44mn
Bit rate mode : Constant
Bit rate : 1 510 Kbps
Channel(s) : 6 channels
Channel positions : Front: L C R, Side: L R, LFE
Sampling rate : 48.0 KHz
Bit depth : 16 bits
Compression mode : Lossy
Stream size : 1.10 GiB (8%)
Title : DTS 5.1 @ 1536 kbps (MVO, R5)
Language : Russian

Audio #2
ID : 3
Format : AC-3
Format/Info : Audio Coding 3
Mode extension : CM (complete main)
Codec ID : A_AC3
Duration : 1h 44mn
Bit rate mode : Constant
Bit rate : 640 Kbps
Channel(s) : 6 channels
Channel positions : Front: L C R, Side: L R, LFE
Sampling rate : 48.0 KHz
Bit depth : 16 bits
Compression mode : Lossy
Stream size : 477 MiB (3%)
Title : AC3 5.1 @ 640 kbps (MVO, Karusel)
Language : Russian

Audio #3
ID : 4
Format : AC-3
Format/Info : Audio Coding 3
Mode extension : CM (complete main)
Codec ID : A_AC3
Duration : 1h 44mn
Bit rate mode : Constant
Bit rate : 448 Kbps
Channel(s) : 6 channels
Channel positions : Front: L C R, Side: L R, LFE
Sampling rate : 48.0 KHz
Bit depth : 16 bits
Compression mode : Lossy
Stream size : 334 MiB (2%)
Title : AC3 5.1 @ 448 kbps (AVO, Puchkov aka Goblin)
Language : Russian

Audio #4
ID : 5
Format : AC-3
Format/Info : Audio Coding 3
Mode extension : CM (complete main)
Codec ID : A_AC3
Duration : 1h 44mn
Bit rate mode : Constant
Bit rate : 448 Kbps
Channel(s) : 6 channels
Channel positions : Front: L C R, Side: L R, LFE
Sampling rate : 48.0 KHz
Bit depth : 16 bits
Compression mode : Lossy
Stream size : 334 MiB (2%)
Title : AC3 5.1 @ 448 kbps (AVO, Gavrilov)
Language : Russian

Audio #5
ID : 6
Format : AC-3
Format/Info : Audio Coding 3
Mode extension : CM (complete main)
Codec ID : A_AC3
Duration : 1h 44mn
Bit rate mode : Constant
Bit rate : 640 Kbps
Channel(s) : 6 channels
Channel positions : Front: L C R, Side: L R, LFE
Sampling rate : 48.0 KHz
Bit depth : 16 bits
Compression mode : Lossy
Stream size : 477 MiB (3%)
Title : AC3 5.1 @ 640 kbps (AVO, Gorchakov)
Language : Russian

Audio #6
ID : 7
Format : AC-3
Format/Info : Audio Coding 3
Mode extension : CM (complete main)
Codec ID : A_AC3
Duration : 1h 44mn
Bit rate mode : Constant
Bit rate : 640 Kbps
Channel(s) : 6 channels
Channel positions : Front: L C R, Side: L R, LFE
Sampling rate : 48.0 KHz
Bit depth : 16 bits
Compression mode : Lossy
Stream size : 477 MiB (3%)
Title : AC3 5.1 @ 640 kbps (AVO, Zhivov)
Language : Russian

Audio #7
ID : 8
Format : DTS
Format/Info : Digital Theater Systems
Codec ID : A_DTS
Duration : 1h 44mn
Bit rate mode : Constant
Bit rate : 1 510 Kbps
Channel(s) : 6 channels
Channel positions : Front: L C R, Side: L R, LFE
Sampling rate : 48.0 KHz
Bit depth : 16 bits
Compression mode : Lossy
Stream size : 1.10 GiB (8%)
Title : DTS 5.1 @ 1536 kbps
Language : English

Text #1
ID : 9
Format : UTF-8
Codec ID : S_TEXT/UTF8
Codec ID/Info : UTF-8 Plain Text
Language : Russian

Text #2
ID : 10
Format : UTF-8
Codec ID : S_TEXT/UTF8
Codec ID/Info : UTF-8 Plain Text
Language : English

Свернуть
Не в сети
Профиль  
 Добавлено: 2011-08-28 18:28 (спустя 4 месяца 26 дней)
Стаж: 8 лет 11 месяцев
Сообщений: 8
Спасибок: 123
Скорости бы...
Не в сети
Профиль  
 Добавлено: 2011-09-06 14:34 (спустя 8 дней)
Стаж: 8 лет 11 месяцев
Сообщений: 8
Спасибок: 123
Уважаемые сиды, придите, пожалуйста. Осталось докачать меньше 5%
Не в сети
Профиль  
Начать новую темуОтветить на тему  [ Сообщений: 3 ] 
Вы не можете начинать темы
Вы не можете отвечать на сообщения
Вы не можете редактировать свои сообщения
Вы не можете удалять свои сообщения