Правила форума

Здесь находятся раздачи, на которых не было полного источника (сида) более месяца.
Вы можете вернуть релиз в соответствующий раздел, для этого напишите нам в специальной теме и встаньте на раздачу.
Новые релизы, повторяющие релизы в архиве, повторами не считаются.
Начать новую темуОтветить на тему  [ 1 сообщение ] 
Сообщения
 Добавлено: 2011-08-12 12:40
Аватара пользователя
Стаж: 7 лет 11 месяцев
Возраст: 21
Сообщений: 517
Спасибок: 898
Лайков: 1
Красная планета / Red Planet

«Они не нашли жизнь на Марсе. Она нашла их сама.»


Изображение
Год выпуска: 2000
Страна: Изображение США, Изображение Австралия
Жанр: фантастика, боевик, триллер
Продолжительность: 01:46:29
Перевод: Профессиональный (полное дублирование) + Оригинальная дорожка

Режиссер: Энтони Хоффман
Сценарий: Чак Пфаррер, Джонатан Лемкин
Продюсер: Брюс Берман, Марк Кантон, Стивен Джонс
Оператор: Питер Сушицки
Композитор: Мелисса Р. Каплан, Грэм Ревелл, Стинг

В ролях: Вэл Килмер, Кэрри-Энн Мосс, Бенджамин Брэтт, Том Сайзмор, Саймон Бейкер,Теренс Стэмп, Боб Нилл, Нил Росс

Описание: В 21 веке Земля вымирает, и жить на ней становится все труднее. Ученые надеются основать колонию на Марсе. Команда из шести астронавтов отправляется на планету, чтобы осмотреть планету с целью ее пригодности для жизни.
Однако после полугодового полета к цели при самой посадке, возникают проблемы. Теперь перед астронавтами стоит проблема — как улететь с этой планеты.

Раздача: Изображение

kinopoisk.ru: 6.407

Доп. информация
Бюджет: 80 000 000 ($)
Сборы в мире: 17 480 890 ($)
Сборы в США: 15 983 079 ($)
Мировая премьера: 6 ноября 2000
Рейтинг PG-13 — Parents strongly cautioned. Дети до 13 лет допускаются на фильм только с родителями
Изображение
Настоятельное предостережение родителям. Некоторый материал может быть неподходящим для детей до 13 лет. Данный рейтинг показывает, что оценённый фильм может быть неподходящим для детей. Родители должны быть особенно осторожны, разрешая своим маленьким детям просмотр. Грубое или продолжительное насилие отсутствует; сексуальная ориентация на наготу отсутствует; некоторые сцены употребления наркотиков могут присутствовать; можно услышать единичные употребления грубой сексуальной лексики.
Свернуть
Свернуть

Качество: BDRip
Формат: MKV
Видео: 1280x534 (2.35:1); 23.976 fps; AVC at 4818 Кбит/сек
Аудио 1: (профессиональный дублированный): A_AC3 at 384 Кбит/сек; 6 каналов, 48.0 КГц
Аудио 2: (перевод телекомпании НТВ Россия): AC-3 at 192 Кбит/сек; 2 канала, 48.0 КГц
Аудио 3: (живой звук): DTS at 1 510 Кбит/сек; 6 каналов, 48.0 КГц
Аудио 4: (оригинальная дорожка): DTS at 1 510 Кбит/сек; 6 каналов, 48.0 КГц


MediaInfo
General
Complete name : Red.Planet.2000.BDRip[R.G.KINOvNINO].mkv
Format : Matroska
File size : 6.57 GiB
Duration : 1h 46mn
Overall bit rate : 8 833 Kbps
Encoded date : UTC 2011-08-06 08:49:32
Writing application : mkvmerge v4.6.0 ('Still Crazy After All These Years') built on Mar 10 2011 02:50:32
Writing library : libebml v1.2.0 + libmatroska v1.1.0

Video
ID : 1
Format : AVC
Format/Info : Advanced Video Codec
Format profile : High@L4.1
Format settings, CABAC : Yes
Format settings, ReFrames : 11 frames
Codec ID : V_MPEG4/ISO/AVC
Duration : 1h 46mn
Bit rate : 5 237 Kbps
Width : 1 280 pixels
Height : 534 pixels
Display aspect ratio : 2.35:1
Frame rate : 23.976 fps
Color space : YUV
Chroma subsampling : 4:2:0
Bit depth : 8 bits
Scan type : Progressive
Bits/(Pixel*Frame) : 0.320
Stream size : 3.76 GiB (57%)
Writing library : x264 core 116 r2044 392e762
Encoding settings : cabac=1 / ref=11 / deblock=1:-3:-3 / analyse=0x3:0x133 / me=esa / subme=10 / psy=1 / psy_rd=1.10:0.10 / mixed_ref=1 / me_range=24 / chroma_me=1 / trellis=2 / 8x8dct=1 / cqm=0 / deadzone=21,11 / fast_pskip=0 / chroma_qp_offset=-3 / threads=12 / sliced_threads=0 / nr=0 / decimate=0 / interlaced=0 / bluray_compat=0 / constrained_intra=0 / bframes=8 / b_pyramid=2 / b_adapt=2 / b_bias=0 / direct=3 / weightb=1 / open_gop=0 / weightp=2 / keyint=250 / keyint_min=23 / scenecut=40 / intra_refresh=0 / rc_lookahead=60 / rc=2pass / mbtree=1 / bitrate=5237 / ratetol=1.0 / qcomp=0.60 / qpmin=0 / qpmax=69 / qpstep=4 / cplxblur=20.0 / qblur=0.5 / vbv_maxrate=50000 / vbv_bufsize=50000 / nal_hrd=none / ip_ratio=1.40 / aq=1:0.60
Language : English

Audio #1
ID : 2
Format : AC-3
Format/Info : Audio Coding 3
Mode extension : CM (complete main)
Codec ID : A_AC3
Duration : 1h 46mn
Bit rate mode : Constant
Bit rate : 384 Kbps
Channel(s) : 6 channels
Channel positions : Front: L C R, Side: L R, LFE
Sampling rate : 48.0 KHz
Bit depth : 16 bits
Stream size : 292 MiB (4%)
Title : Dub
Language : Russian

Audio #2
ID : 3
Format : AC-3
Format/Info : Audio Coding 3
Mode extension : CM (complete main)
Codec ID : A_AC3
Duration : 1h 46mn
Bit rate mode : Constant
Bit rate : 192 Kbps
Channel(s) : 2 channels
Channel positions : Front: L R
Sampling rate : 48.0 KHz
Bit depth : 16 bits
Stream size : 146 MiB (2%)
Title : NTV
Language : Russian

Audio #3
ID : 4
Format : DTS
Format/Info : Digital Theater Systems
Codec ID : A_DTS
Duration : 1h 46mn
Bit rate mode : Constant
Bit rate : 1 510 Kbps
Channel(s) : 6 channels
Channel positions : Front: L C R, Side: L R, LFE
Sampling rate : 48.0 KHz
Bit depth : 24 bits
Stream size : 1.12 GiB (17%)
Title : Zjivov
Language : Russian

Audio #4
ID : 5
Format : DTS
Format/Info : Digital Theater Systems
Codec ID : A_DTS
Duration : 1h 46mn
Bit rate mode : Constant
Bit rate : 1 510 Kbps
Channel(s) : 6 channels
Channel positions : Front: L C R, Side: L R, LFE
Sampling rate : 48.0 KHz
Bit depth : 24 bits
Stream size : 1.12 GiB (17%)
Title : Eng
Language : English

Text #1
ID : 6
Format : UTF-8
Codec ID : S_TEXT/UTF8
Codec ID/Info : UTF-8 Plain Text
Title : Rus
Language : Russian

Text #2
ID : 7
Format : UTF-8
Codec ID : S_TEXT/UTF8
Codec ID/Info : UTF-8 Plain Text
Title : Eng
Language : English

Menu
00:00:00.000 : :Mission Personnel (Credits)
00:03:37.843 : :Interesting Questions
00:06:21.423 : :Shower Power
00:08:14.119 : :Amee and Other Ladies
00:10:42.100 : :Party Animals
00:14:51.891 : :Gamma Burst
00:18:35.531 : :Launch and Shutdown
00:23:05.134 : :Crash Landing
00:26:15.616 : :Zero-Gravity Fire
00:27:44.663 : :Power Up, Man Down
00:31:12.579 : :Staying Behind
00:35:11.818 : :What Happened to Hab?
00:39:45.633 : :Over the Edge
00:44:43.014 : :Precious Breath
00:49:30.926 : :Billion-Dollar Campfire
00:51:53.319 : :Military Mode
00:55:38.377 : :Daylight, Green Light
00:58:19.454 : :Contact
01:02:37.337 : :Moving Ground
01:06:52.175 : :Only Two
01:08:39.657 : :Ice Storm
01:11:26.240 : :Watching One's Back
01:13:33.576 : :Amee's Target
01:16:01.056 : :A Nematode's Life
01:19:40.025 : :Sacrificial Blowtorch
01:23:35.260 : :Cosmos
01:27:26.992 : :What Gallagher Misses
01:30:04.649 : :'bye, Sweetie
01:34:50.977 : :Rendezvous in Space
01:40:46.290 : :Memento of Faith
01:42:18.716 : :End Credits
Свернуть

Скриншоты

Изображение

Изображение

Изображение

Изображение

Изображение

Свернуть
Не в сети
Профиль  
Начать новую темуОтветить на тему  [ 1 сообщение ] 
Вы не можете начинать темы
Вы не можете отвечать на сообщения
Вы не можете редактировать свои сообщения
Вы не можете удалять свои сообщения