Правила форума

Здесь находятся раздачи, на которых не было полного источника (сида) более месяца.
Вы можете вернуть релиз в соответствующий раздел, для этого напишите нам в специальной теме и встаньте на раздачу.
Новые релизы, повторяющие релизы в архиве, повторами не считаются.
Начать новую темуОтветить на тему  [ Сообщений: 4 ] 
Сообщения
 Добавлено: 2011-06-16 01:22
Аватара пользователя
Стаж: 5 лет 6 месяцев
Возраст: 30
Сообщений: 353
Спасибок: 7455
Красная шапочка / Red Riding Hood


Изображение


Год выпуска: 2011
Страна: США, Канада (Appian Way, Random Films, Warner Bros. Pictures)
Слоган: «Верь легенде. Берегись оборотня.»
Жанр: ужасы, фэнтези, триллер, детектив
Продолжительность: 01:39:52
Перевод: Оригинальная звуковая дорожка + Профессиональный (дубляж)
Дублеры: Василиса Воронина, Леонид Белозорович, Илья Исаев, Евгений Вальц, Даниил Эльдаров + Профессиональный (дубляж)
Субтитры: Русские, Английские

Режиссёр: Кэтрин Хардвик / Catherine Hardwicke
Сценарист: Дэвид Джонсон
Продюсер: Леонардо ДиКаприо, Дженнифер Дэвиссон, Алекс Мейс
Оператор: Мэнди Уокер
Композитор: Алекс Хеффес, Брайан Райцелл

В ролях: Аманда Сайфред, Гари Олдман, Билли Бёрк, Шайло Фернандез, Макс Айронс, Вирджиния Мэдсен, Лукас Хаас, Джули Кристи, Шона Кейн, Майкл Хоган

Описание: Валери — девочке в красном плаще — предстоит раскрыть, кто же в её родной деревушке является оборотнем. Между тем на личном фронте у Валери тоже не всё просто: мама хочет выдать её замуж за богатого кузнеца Генри, тогда как девушка влюблена в плохиша Питера, местного дровосека.

Доп.информация: Удаленные сцены
Рейтинг MPAA: Рейтинг PG-13 (Дети до 13 лет допускаются на фильм только с родителями)
Мировая премьера: 7 марта 2011
Премьера в России: 17 марта 2011, «Каро-Премьер»
Бюджет: $42 000 000
Кассовые сборы: + $51 500 000 = $89 162 162

Изображение Изображение Изображение

Качество: DVD9 R5
Формат: DVD Video
Видео кодек: MPEG2
Аудио кодек: AC3 (Dolby Digital)
Видео: PAL 16:9 (720x576(0.580)) MPEG Video,25,000 кадр/сек, 6011 Кбит/сек
Аудио #1: English (Dolby AC3, 6 ch) 384 Кбит/сек, 48,0 КГц [Оригинальная звуковая дорожка]
Аудио #2: Russian (Dolby AC3, 6 ch) 384 Кбит/сек, 48,0 КГц [Профессиональный (дубляж)]
Аудио #3: Ukrainian (Dolby AC3, 6 ch) 384 Кбит/сек, 48,0 КГц [Профессиональный (дубляж)]
Субтитры: Русские, Английские

"DVDInfo"
Title: Мой диск
Size: 5.01 Gb ( 5 255 080 KBytes ) - DVD-9
Enabled regions: 1, 2, 3, 4, 5, 6, 7, 8

VTS_01 :
Play Length: 01:35:44+00:04:08
Video: PAL 16:9 (720x576) VBR, Auto Pan&Scan
Audio:
English (Dolby AC3, 6 ch)
Russian (Dolby AC3, 6 ch)
Ukrainian (Dolby AC3, 6 ch)
English (Dolby AC3, 2 ch)
Subtitles:
English
Russian
Russian

VTS_02 :
Play Length: 00:00:10
Video: PAL 16:9 (720x576) VBR, Auto Pan&Scan
Audio:
Not specified (Dolby AC3, 6 ch)
Subtitles:
Not specified
Свернуть

"MediaInfo"
Общее
Полное имя : F:\Новинки 2011\Krasnaya.shapochka.2011.DVD9\VIDEO_TS\VTS_01_2.VOB
Формат : MPEG-PS
Размер файла : 1024 Мбайт
Продолжительность : 19 м.
Общий поток : 7308 Кбит/сек

Видео
Идентификатор : 224 (0xE0)
Формат : MPEG Video
Версия формата : Version 2
Профиль формата : Main@Main
Параметр BVOP формата : Да
Параметр матрицы формата : По умолчанию
Параметры GOP формата : M=3, N=15
Продолжительность : 19 м.
Вид битрейта : Переменный
Битрейт : 6011 Кбит/сек
Номинальный битрейт : 7500 Кбит/сек
Ширина : 720 пикс.
Высота : 576 пикс.
Соотношение сторон : 16:9
Частота кадров : 25,000 кадр/сек
Стандарт вещания : PAL
Цветовое пространство : YUV
Подвыборка цветности : 4:2:0
Битовая глубина : 8 бит
Тип развёртки : Прогрессивная
Порядок развёртки : Верхнее поле первое
Метод сжатия : С потерями
Бит/(Пиксели*Кадры) : 0.580
Размер потока : 842 Мбайт (82%)

Аудио #1
Идентификатор : 189 (0xBD)-128 (0x80)
Формат : AC-3
Формат/Информация : Audio Coding 3
Расширение режима : CM (complete main)
Режим смешивания : DVD-Video
Продолжительность : 19 м.
Вид битрейта : Постоянный
Битрейт : 384 Кбит/сек
Канал(ы) : 6 канала(ов)
Расположение каналов : Front: L C R, Side: L R, LFE
Частота : 48,0 КГц
Битовая глубина : 16 бит
Метод сжатия : С потерями
Задержка видео : -568 мс.
Размер потока : 53,8 Мбайт (5%)

Аудио #2
Идентификатор : 189 (0xBD)-129 (0x81)
Формат : AC-3
Формат/Информация : Audio Coding 3
Расширение режима : CM (complete main)
Режим смешивания : DVD-Video
Продолжительность : 19 м.
Вид битрейта : Постоянный
Битрейт : 384 Кбит/сек
Канал(ы) : 6 канала(ов)
Расположение каналов : Front: L C R, Side: L R, LFE
Частота : 48,0 КГц
Битовая глубина : 16 бит
Метод сжатия : С потерями
Задержка видео : -568 мс.
Размер потока : 53,8 Мбайт (5%)

Аудио #3
Идентификатор : 189 (0xBD)-130 (0x82)
Формат : AC-3
Формат/Информация : Audio Coding 3
Расширение режима : CM (complete main)
Режим смешивания : DVD-Video
Продолжительность : 19 м.
Вид битрейта : Постоянный
Битрейт : 384 Кбит/сек
Канал(ы) : 6 канала(ов)
Расположение каналов : Front: L C R, Side: L R, LFE
Частота : 48,0 КГц
Битовая глубина : 16 бит
Метод сжатия : С потерями
Задержка видео : -568 мс.
Размер потока : 53,8 Мбайт (5%)

Свернуть

Скриншоты
Скриншоты меню
Изображение
Изображение
Свернуть
Изображение
Изображение
Изображение
Изображение
Изображение
Изображение
Изображение
Изображение
Свернуть


Изображение
Не в сети
Профиль  
 Добавлено: 2011-06-16 23:43 (спустя 22 часа)
DVD Release Group
Аватара пользователя
Стаж: 7 лет 9 месяцев
Сообщений: 364
Спасибок: 3087
Лайков: 10
Спасибо :)
Заценим не пережатый вариант от «CP-Digital».
...Посмотрел, та еще халтура, не напряглись когда делали. Надо из Blu-Ray Remux собирать.
Не в сети
Профиль  
 Добавлено: 2011-06-22 18:54 (спустя 5 дней)
Аватара пользователя
Стаж: 7 лет 3 месяца
Возраст: 34
Сообщений: 127
нОРМАЛЬНЫЙ ФИЛЬМ ТАКОЙ МОЖНО ПОСМОТРЕТЬ!
Спасибо
Не в сети
Профиль  
 Добавлено: 2011-07-05 23:38 (спустя 13 дней)
Аватара пользователя
Стаж: 8 лет 3 месяца
Возраст: 43
Сообщений: 3290
Спасибок: 21012
Лайков: 3
Отлепляем :(
_________________
Изображение
Не в сети
Профиль  
Начать новую темуОтветить на тему  [ Сообщений: 4 ] 
Вы не можете начинать темы
Вы не можете отвечать на сообщения
Вы не можете редактировать свои сообщения
Вы не можете удалять свои сообщения