Правила форума

Здесь находятся раздачи, на которых не было полного источника (сида) более месяца.
Вы можете вернуть релиз в соответствующий раздел, для этого напишите нам в специальной теме и встаньте на раздачу.
Новые релизы, повторяющие релизы в архиве, повторами не считаются.
Начать новую темуОтветить на тему  [ 1 сообщение ] 
Сообщения
 Добавлено: 2011-07-14 22:00
Аватара пользователя
Стаж: 6 лет 6 месяцев
Сообщений: 214
Спасибок: 10697
Красотки
Hard Breakers

Изображение

Год выпуска: 2010
Страна: США
Слоган: «The battle of the sexes just got harder.»
Жанр: комедия
Продолжительность: 01:38:01
Перевод: Профессиональный (многоголосый, закадровый)
Режиссер: Леа Стургис
Сценарий: Илэйн Фогг, Леа Стургис
Продюсер: Роберт Лэтэм Браун, Роберт 'Рок' Галотти, Леа Стургис
Оператор: Роберт Бринкманн
Композитор: Андрес Болтон

В ролях: Тиа Каррере, Мирчи Монро, Кэмерон Ричардсон, Софи Монк, Том Арнольд, Стивен Тоболовски, Алексис Аркетт, Локлин Манро, Крис Кэттэн, Джефф Чейз

Мировая премьера: 8 декабря 2010
Релиз на DVD: 14 июля 2011, «Парадиз Видео»
Описание: Алексис и ее лучшая подруга Линдси решили разработать план, чтобы заманить ничего не подозревающих мужчин и унизить их для собственного удовлетворения.
Изображение 2.60 (330) Изображение 5.300 (23)

Релиз группы: Изображение Раздача: Изображение
Изображение
Качество: DVD9 R5
Формат: DVD Video
Видео: PAL 16:9 (720x576)
Аудио №1: Russian AC3; 384 Kbps; CBR; 6 ch
Аудио №2: Russian AC3; 192 Kbps; CBR; 2 ch
Аудио №3: English AC3; 384 Kbps; CBR; 6 ch
Субтитры: Russian
NFO
Title:
Size: 5.64 Gb ( 5 913 954 KBytes ) - DVD-9
Enabled regions: 1, 2, 3, 4, 5, 6, 7, 8

VTS_01 :
Play Length: 01:38:01
Video: PAL 16:9 (720x576) VBR, Auto Pan&Scan
Audio:
Russian (Dolby AC3, 6 ch)
Russian (Dolby AC3, 2 ch)
English (Dolby AC3, 6 ch)
Subtitles:
Russian

VTS_02 :
Play Length: 00:00:11
Video: PAL 16:9 (720x576) VBR, Auto Pan&Scan
Audio:
Russian (Dolby AC3, 2 ch)

VTS_03 :
Play Length: 00:00:17
Video: PAL 4:3 (720x576) VBR
Audio:
Russian (Dolby AC3, 2 ch)

VTS_04 :
Play Length: 00:05:38
Video: PAL 4:3 (720x576) VBR
Audio:
Russian (Dolby AC3, 2 ch)

VTS_05 :
Play Length: 00:06:08
Video: PAL 16:9 (720x576) VBR, Auto Pan&Scan
Audio:
Russian (Dolby AC3, 2 ch)
Свернуть
MediaInfo
General
Complete name : E:\Temp\FullDisc\HARD_BREAKERS\VIDEO_TS\VTS_01_3.VOB
Format : MPEG-PS
File size : 1 024 MiB
Duration : 20mn 4s
Overall bit rate : 7 133 Kbps

Video
ID : 224 (0xE0)
Format : MPEG Video
Format version : Version 2
Format profile : Main@Main
Format settings, BVOP : Yes
Format settings, Matrix : Default
Format settings, GOP : M=3, N=15
Duration : 20mn 4s
Bit rate mode : Variable
Bit rate : 6 031 Kbps
Nominal bit rate : 8 000 Kbps
Width : 720 pixels
Height : 576 pixels
Display aspect ratio : 16:9
Frame rate : 25.000 fps
Standard : PAL
Color space : YUV
Chroma subsampling : 4:2:0
Bit depth : 8 bits
Scan type : Interlaced
Scan order : Top Field First
Compression mode : Lossy
Bits/(Pixel*Frame) : 0.582
Stream size : 866 MiB (85%)

Audio #1
ID : 189 (0xBD)-128 (0x80)
Format : AC-3
Format/Info : Audio Coding 3
Mode extension : CM (complete main)
Muxing mode : DVD-Video
Duration : 20mn 4s
Bit rate mode : Constant
Bit rate : 384 Kbps
Channel(s) : 6 channels
Channel positions : Front: L C R, Side: L R, LFE
Sampling rate : 48.0 KHz
Bit depth : 16 bits
Compression mode : Lossy
Delay relative to video : -592ms
Stream size : 55.1 MiB (5%)

Audio #2
ID : 189 (0xBD)-129 (0x81)
Format : AC-3
Format/Info : Audio Coding 3
Mode extension : CM (complete main)
Muxing mode : DVD-Video
Duration : 20mn 4s
Bit rate mode : Constant
Bit rate : 192 Kbps
Channel(s) : 2 channels
Channel positions : Front: L R
Sampling rate : 48.0 KHz
Bit depth : 16 bits
Compression mode : Lossy
Delay relative to video : -496ms
Stream size : 27.6 MiB (3%)

Audio #3
ID : 189 (0xBD)-130 (0x82)
Format : AC-3
Format/Info : Audio Coding 3
Mode extension : CM (complete main)
Muxing mode : DVD-Video
Duration : 20mn 4s
Bit rate mode : Constant
Bit rate : 384 Kbps
Channel(s) : 6 channels
Channel positions : Front: L C R, Side: L R, LFE
Sampling rate : 48.0 KHz
Bit depth : 16 bits
Compression mode : Lossy
Delay relative to video : -592ms
Stream size : 55.1 MiB (5%)

Text
ID : 189 (0xBD)-32 (0x20)
Format : RLE
Format/Info : Run-length encoding
Muxing mode : DVD-Video
Duration : 20mn 2s
Delay relative to video : -200ms
Свернуть

"Скриншоты"

Изображение
Изображение
Изображение
Изображение
Изображение
Изображение
Изображение
Изображение
Свернуть
Не в сети
Профиль  
Начать новую темуОтветить на тему  [ 1 сообщение ] 
Вы не можете начинать темы
Вы не можете отвечать на сообщения
Вы не можете редактировать свои сообщения
Вы не можете удалять свои сообщения