Правила форума

Здесь находятся раздачи, на которых не было полного источника (сида) более месяца.
Вы можете вернуть релиз в соответствующий раздел, для этого напишите нам в специальной теме и встаньте на раздачу.
Новые релизы, повторяющие релизы в архиве, повторами не считаются.
Начать новую темуОтветить на тему  [ Сообщений: 5 ] 
Сообщения
 Добавлено: 2011-12-04 11:34
Книголюб
Аватара пользователя
Стаж: 7 лет 2 месяца
Сообщений: 2823
Спасибок: 48825
Лайков: 73
Кредо убийцы
Assassin's Creed: Lineage
Изображение


Год выпуска: 2009
Страна: Канада, Франция
Жанр: боевик, приключения
Продолжительность: 00:35:52
Перевод: Профессиональный (многоголосый закадровый)

Режиссёр: Ив Симоно
В ролях: Романо Орзари Клаудиа Ферри Devery Jacobs Мануэль Тадрос Джесси Рат Девон Бостикn Alex Ivanovici Мишель Перрон Артур Гроссер Питер Миллер
Описание: История фильма является приквелом к компьютерной игре «Assassin`s Creed II». Сюжет фильма сфокусирован на отце центрального персонажа «Assassin`s Creed II», Джованни Аудиторе де Фиренце.

Джованни — ассасин, живущий в эпоху Ренессанса в XV веке в Италии. На заре новой эры, некая коррумпированная семья готовит заговор с целью свержения могущественной семьи Медичи и уничтожении единой Италии. Как ассасин, Джованни должен противостоять этой угрозе и восстановить справедливость. Сюжет фильма представляет ситуацию до событий «Assassin`s Creed II», но показывает врагов и окружение как главного героя фильма, так и его сына (главного героя «Assassin`s Creed II»).
Мировая премьера: 26 октября 2009
Изображение 6.979 727

Качество: BDRemux
Формат: MKV
Видео кодек: H264
Аудио кодек: AC3 (Dolby Digital)
Видео: 1920x1080 23.98fps 17.7 Mbps 0.356Bits/Pixel
Аудио #1: 44100Hz stereo

MediaInfo
General
Unique ID : 207294821021965349740760607650035199216 (0x9BF387C28B53894C87E86B1B43FAECF0)
Complete name : P:\Assassin's Creed. Lineage (2009) BDRemux.mkv
Format : Matroska
File size : 5.00 GiB
Duration : 35mn 52s
Overall bit rate : 19.9 Mbps
Movie name : релиз от FREEISLAND.ORG
Encoded date : UTC 2011-12-01 14:42:25
Writing application : mkvmerge v5.0.1 ('Es ist Sommer') built on Oct 9 2011 11:55:43
Writing library : libebml v1.2.2 + libmatroska v1.3.0

Video
ID : 1
Format : AVC
Format/Info : Advanced Video Codec
Format profile : High@L4.1
Format settings, CABAC : Yes
Format settings, ReFrames : 3 frames
Muxing mode : Container profile=Unknown@0.0
Codec ID : V_MPEG4/ISO/AVC
Duration : 35mn 52s
Bit rate mode : Variable
Bit rate : 17.7 Mbps
Maximum bit rate : 35.0 Mbps
Width : 1 920 pixels
Height : 1 080 pixels
Display aspect ratio : 16:9
Frame rate : 23.976 fps
Standard : NTSC
Color space : YUV
Chroma subsampling : 4:2:0
Bit depth : 8 bits
Scan type : Progressive
Bits/(Pixel*Frame) : 0.356
Stream size : 4.44 GiB (89%)
Color primaries : BT.709-5, BT.1361, IEC 61966-2-4, SMPTE RP177
Transfer characteristics : BT.709-5, BT.1361
Matrix coefficients : BT.709-5, BT.1361, IEC 61966-2-4 709, SMPTE RP177

Audio #1
ID : 2
Format : AC-3
Format/Info : Audio Coding 3
Mode extension : CM (complete main)
Codec ID : A_AC3
Duration : 35mn 52s
Bit rate mode : Constant
Bit rate : 192 Kbps
Channel(s) : 2 channels
Channel positions : Front: L R
Sampling rate : 44.1 KHz
Bit depth : 16 bits
Compression mode : Lossy
Delay relative to video : 35ms
Stream size : 49.3 MiB (1%)
Title : MVO
Language : Russian

Audio #2
ID : 3
Format : DTS
Format/Info : Digital Theater Systems
Format profile : MA / Core
Codec ID : A_DTS
Duration : 35mn 52s
Bit rate mode : Variable
Bit rate : 1 660 Kbps / 1 510 Kbps
Channel(s) : 2 channels
Channel positions : Front: L R
Sampling rate : 48.0 KHz
Bit depth : 16 bits
Compression mode : Lossless / Lossy
Language : English

Text
ID : 4
Format : UTF-8
Codec ID : S_TEXT/UTF8
Codec ID/Info : UTF-8 Plain Text
Language : Russian

Menu
00:00:00.000 : :01
00:05:33.250 : :02
00:10:33.466 : :03
00:16:07.633 : :04
00:21:35.169 : :05
00:29:01.698 : :06


Свернуть


Скриншоты
Изображение
Изображение
Изображение
Свернуть
Не в сети
Профиль  
 Добавлено: 2011-12-05 09:49 (спустя 22 часа)
Аватара пользователя
Стаж: 7 лет 2 месяца
Сообщений: 7167
Спасибок: 82001
Лайков: 2438
Извиняюсь ,что такое приквел ?
Не в сети
Профиль  
 Добавлено: 2011-12-05 17:55 (спустя 8 часов)
Аватара пользователя
Стаж: 9 лет
Сообщений: 167
Спасибок: 38
кака фильм?
Не в сети
Профиль  
 Добавлено: 2011-12-06 19:22 (спустя 1 день 1 час)
Книголюб
Аватара пользователя
Стаж: 7 лет 2 месяца
Сообщений: 2823
Спасибок: 48825
Лайков: 73

di-ys1:

Извиняюсь ,что такое приквел ?
http://ru.wikipedia.org/wiki/%D0%9F%D1%80%D0%B8%D0%BA%D0%B2%D0%B5%D0%BB
Не в сети
Профиль  
 Добавлено: 2011-12-09 20:31 (спустя 3 дня)
Стаж: 7 лет 5 месяцев
Сообщений: 55
5 гигов 35-минутного видео? Извиняюсь,у Вас с головой всё в порядке?
Не в сети
Профиль  
Начать новую темуОтветить на тему  [ Сообщений: 5 ] 
Вы не можете начинать темы
Вы не можете отвечать на сообщения
Вы не можете редактировать свои сообщения
Вы не можете удалять свои сообщения