Правила форума

Здесь находятся раздачи, на которых не было полного источника (сида) более месяца.
Вы можете вернуть релиз в соответствующий раздел, для этого напишите нам в специальной теме и встаньте на раздачу.
Новые релизы, повторяющие релизы в архиве, повторами не считаются.
Начать новую темуОтветить на тему  [ Сообщений: 6 ] 
Сообщения
 Добавлено: 2013-05-23 15:15
Аватара пользователя
Стаж: 5 лет 4 месяца
Возраст: 26
Сообщений: 1658
Спасибок: 45810
Лайков: 69
Крепкий орешек 5. Хороший день, чтобы умереть / A Good Day to Die Hard


«Яблоко от яблони»


Изображение
Год выпуска: 2013
Страна: Изображение
Жанр: Боевик, триллер, криминал
Продолжительность: 01:41:11
Перевод: Профессиональный (дубляж) (Лицензия)

Режиссёр: Джон Мур

Сценарий: Скип Вудс, Родерик Торп

Продюсер: Вик Годфри, Алекс Янг, Стивен Дж. Идс, Том Карновски, Брюс Уиллис

Оператор: Джонатан Села

Композитор: Марко Белтрами

Xудожник: Дэниэл Т. Доррэнс, Ник Бланш, Том Браун

В ролях: Брюс Уиллис, Джай Кортни , Себастьян Кох , Юлия Снигирь , Радивойе Буквич, Сергей Колесников, Мэри Элизабет Уинстэд, Коул Хаузер, Амори Ноласко, Роман Лукнар, Павел Лучникофф, Мэгалин Эчиканвоке, Мелисса Тэнг, Рико Симонини, Катрин Кресг, Эйприл Грэйс, Купер Торнтон.


Описание: Джон МакКлейн прибывает в Москву, чтобы вызволить из тюрьмы своего непредсказуемого сына, но холодная голова и железные мускулы вязнут в паутине российской действительности. Дело, в которое влип МакКлейн-младший, оказывается настолько «опасной трясиной», что отцу и сыну, чтобы выжить и в очередной раз спасти мир, приходится объединить свои усилия, забыв прежние, казалось бы, непреодолимые разногласия.


Изображение



Бюджет: $92 000 000
Сборы в США: $67 346 556
Сборы в Мире: $304 246 556
Сборы в России: $12 202 808

Мировая премьера:7 февраля 2013.
Российский прокат:14 февраля 2013.
Релиз на DVD:6 июня 2013, «Двадцатый Век Фокс СНГ».
Релиз на Blu-Ray:6 июня 2013, «Двадцатый Век Фокс СНГ».

Качество: BDRip (1080p)
Формат: MKV
Видео: MPEG-4 AVC, 11 Мбит/с, 1920x1040
Аудио: Русский (AC3, 6 ch, 384 Кбит/с), английский (DTS, 6 ch, 1510 Кбит/с)
Субтитры: Английские


"MediaInfo"
Общее
Уникальный идентификатор : 177106575277383975582642362516011444357 (0x853D7C54B3DB625BAFE0B91C279B6885)
Полное имя : D:\образы игр\a.good.day.to.die.hard.2013.extended.1080p.bluray.dts-hd.ma.x264.mkv
Формат : Matroska
Версия формата : Version 4 / Version 2
Размер файла : 11,8 Гбайт
Продолжительность : 1 ч. 41 м.
Режим общего битрейта : Переменный
Общий поток : 16,7 Мбит/сек
Дата кодирования : UTC 2013-05-23 09:13:33
Программа кодирования : mkvmerge v6.1.0 ('Old Devil') built on Mar 2 2013 14:32:37
Библиотека кодирования : libebml v1.3.0 + libmatroska v1.4.0

Видео
Идентификатор : 1
Формат : AVC
Формат/Информация : Advanced Video Codec
Профиль формата : High@L5.0
Параметр CABAC формата : Да
Параметр ReFrames формата : 5 кадров
Идентификатор кодека : V_MPEG4/ISO/AVC
Продолжительность : 1 ч. 41 м.
Номинальный битрейт : 11,0 Мбит/сек
Ширина : 1920 пикселей
Высота : 1040 пикселей
Соотношение сторон : 1,85:1
Режим частоты кадров : Постоянный
Частота кадров : 23,976 кадра/сек
Цветовое пространство : YUV
Субдискретизация насыщенности : 4:2:0
Битовая глубина : 8 бит
Тип развёртки : Прогрессивная
Бит/(Пиксели*Кадры) : 0.230
Библиотека кодирования : x264 core 130 r2273 b3065e6
Настройки программы : cabac=1 / ref=5 / deblock=1:0:0 / analyse=0x3:0x113 / me=umh / subme=7 / psy=1 / psy_rd=1.00:0.00 / mixed_ref=1 / me_range=16 / chroma_me=1 / trellis=1 / 8x8dct=1 / cqm=0 / deadzone=21,11 / fast_pskip=1 / chroma_qp_offset=-2 / threads=16 / lookahead_threads=2 / sliced_threads=0 / nr=0 / decimate=1 / interlaced=0 / bluray_compat=0 / constrained_intra=0 / bframes=3 / b_pyramid=2 / b_adapt=1 / b_bias=0 / direct=3 / weightb=1 / open_gop=0 / weightp=2 / keyint=240 / keyint_min=23 / scenecut=40 / intra_refresh=0 / rc_lookahead=40 / rc=abr / mbtree=1 / bitrate=11000 / ratetol=1.0 / qcomp=0.60 / qpmin=0 / qpmax=69 / qpstep=4 / ip_ratio=1.40 / aq=1:1.00
Язык : English
Default : Да
Forced : Нет

Аудио #1
Идентификатор : 2
Формат : AC-3
Формат/Информация : Audio Coding 3
Расширение режима : CM (complete main)
Параметр Endianness формата : Big
Идентификатор кодека : A_AC3
Продолжительность : 1 ч. 41 м.
Вид битрейта : Постоянный
Битрейт : 384 Кбит/сек
Каналы : 6 каналов
Расположение каналов : Front: L C R, Side: L R, LFE
Частота : 48,0 КГц
Битовая глубина : 16 бит
Метод сжатия : С потерями
Размер потока : 278 Мбайт (2%)
Язык : Russian
Default : Да
Forced : Нет

Аудио #2
Идентификатор : 3
Формат : DTS
Формат/Информация : Digital Theater Systems
Профиль формата : MA / Core
Режим : 16
Параметр Endianness формата : Big
Идентификатор кодека : A_DTS
Продолжительность : 1 ч. 41 м.
Вид битрейта : Переменный
Битрейт : Неизвестно / 1509 Кбит/сек
Каналы : 8 каналов / 6 каналов
Расположение каналов : Front: L C R, Side: L R, Back: L R, LFE / Front: L C R, Side: L R, LFE
Частота : 48,0 КГц
Битовая глубина : 24 бит
Метод сжатия : Без потерь / Lossy
Язык : English
Default : Нет
Forced : Нет

Аудио #3
Идентификатор : 4
Формат : Vorbis
Параметр Floor формата : 1
Идентификатор кодека : A_VORBIS
Продолжительность : 1 ч. 41 м.
Вид битрейта : Переменный
Битрейт : 52,3 Кбит/сек
Каналы : 2 канала
Частота : 48,0 КГц
Метод сжатия : С потерями
Размер потока : 37,9 Мбайт (0%)
Библиотека кодирования : aoTuV 20110424 (UTC 2011-04-24)
Язык : English
Default : Нет
Forced : Нет

Меню
00:00:00.000 : en:00:00:00.000
00:02:45.999 : en:00:02:45.999
00:05:02.135 : en:00:05:02.135
00:09:36.242 : en:00:09:36.242
00:12:13.900 : en:00:12:13.900
00:15:25.550 : en:00:15:25.550
00:18:02.999 : en:00:18:02.999
00:22:31.350 : en:00:22:31.350
00:28:31.376 : en:00:28:31.376
00:32:28.863 : en:00:32:28.863
00:36:05.914 : en:00:36:05.914
00:39:53.641 : en:00:39:53.641
00:42:20.621 : en:00:42:20.621
00:46:04.720 : en:00:46:04.720
00:50:30.986 : en:00:50:30.986
00:53:21.657 : en:00:53:21.657
00:57:05.547 : en:00:57:05.547
01:01:46.619 : en:01:01:46.619
01:05:03.650 : en:01:05:03.650
01:10:24.053 : en:01:10:24.053
01:14:04.982 : en:01:14:04.982
01:17:50.416 : en:01:17:50.416
Свернуть

"Трейлер"
Свернуть

"Скриншоты"
Изображение
Изображение
Изображение
Свернуть
_________________
S.T.A.L.K.E.R.: Lost Alpha
Не в сети
Профиль  
 Добавлено: 2013-05-23 15:32 (спустя 17 минут)
Аватара пользователя
Стаж: 3 года 7 месяцев
Возраст: 36
Сообщений: 212
Спасибок: 1248
:dan_ser:
Не в сети
Профиль  
 Добавлено: 2013-05-23 17:47 (спустя 2 часа 14 минут)
Аватара пользователя
Стаж: 5 лет 4 месяца
Возраст: 26
Сообщений: 1658
Спасибок: 45810
Лайков: 69
Nefeol
:men:
_________________
S.T.A.L.K.E.R.: Lost Alpha
Не в сети
Профиль  
 Добавлено: 2013-05-23 20:11 (спустя 2 часа 24 минуты)
Аватара пользователя
Стаж: 8 лет 3 месяца
Возраст: 43
Сообщений: 3290
Спасибок: 21012
Лайков: 3
рип на скорую руку. .... чаптеров нет, на проигрывателе выдал ошибку, но воспроизвелся...
_________________
Изображение
Не в сети
Профиль  
 Добавлено: 2013-05-23 20:20 (спустя 8 минут)
Модератор релиз-группы
Аватара пользователя
Стаж: 9 лет 1 месяц
Возраст: 97
Сообщений: 11660
Спасибок: 6534
Лайков: 269

MediaInfo:

Профиль формата : High@L5.0
:par_don:
_________________
Изображение
Не в сети
Профиль  
 Добавлено: 2013-05-25 09:23 (спустя 1 день 13 часов)
Руководитель релиз-группы
Аватара пользователя
Стаж: 7 лет 5 месяцев
Возраст: 31
Сообщений: 3406
Спасибок: 46729
Лайков: 5
dvd-i-hd-filmi-f1743/krepkiy-oreshek-horoshiy-den-chtobi-umeret-rasshirennaya-versiya-a-good-day-to-die-hard-extended-cut-djon-mur-t509276.html
Не в сети
Профиль  
Начать новую темуОтветить на тему  [ Сообщений: 6 ] 
Вы не можете начинать темы
Вы не можете отвечать на сообщения
Вы не можете редактировать свои сообщения
Вы не можете удалять свои сообщения