Правила форума

Здесь находятся раздачи, на которых не было полного источника (сида) более месяца.
Вы можете вернуть релиз в соответствующий раздел, для этого напишите нам в специальной теме и встаньте на раздачу.
Новые релизы, повторяющие релизы в архиве, повторами не считаются.
Начать новую темуОтветить на тему  [ Сообщений: 10 ] 
Сообщения
 Добавлено: 2013-05-15 10:15
DVD Release Group
Аватара пользователя
Стаж: 7 лет 1 месяц
Сообщений: 3542
Спасибок: 246670
Лайков: 1016
Крепкий орешек: Хороший день, чтобы умереть

A Good Day to Die Hard

«Хороший день, чтобы умереть»


Изображение


Год выпуска: 2013
Страна: США
Жанр: Боевик, триллер, криминал
Продолжительность: 01:38:11
Перевод: Профессиональный (полное дублирование) Чистый звук
Режиссер: Джон Мур
В ролях: Брюс Уиллис, Джай Кортни, Себастьян Кох, Юлия Снигирь, Радивойе Буквич, Сергей Колесников, Мэри Элизабет Уинстэд, Коул Хаузер, Амори Ноласко, Роман Лукнар
Описание: Джон МакКлейн прибывает в Москву, чтобы вызволить из тюрьмы своего непредсказуемого сына, но холодная голова и железные мускулы вязнут в паутине российской действительности. Дело, в которое влип МакКлейн-младший, оказывается настолько «опасной трясиной», что отцу и сыну, чтобы выжить и в очередной раз спасти мир, приходится объединить свои усилия, забыв прежние, казалось бы, непреодолимые разногласия.
Изображение
Sample:
http://multi-up.com/865719
Качество: WEBDL 1080p
Формат: MKV
Видео кодек: H264
Аудио кодек: AC3
Видео: 1916x1036 23.98fps 4876Kbps
Аудио:
Аудио Rus: 48kHz 2ch 192kbps
Аудио Eng: 48kHz 6ch 384kbps
"MediaInfo"
Формат : Matroska
Версия формата : Version 2
Размер файла : 3,81 Гбайт
Продолжительность : 1 ч. 38 м.
Общий поток : 5557 Кбит/сек
Дата кодирования : UTC 2013-05-14 13:16:38
Программа кодирования : mkvmerge v5.7.0 ('The Whirlwind') built on Jul 8 2012 20:08:51
Библиотека кодирования : libebml v1.2.3 + libmatroska v1.3.0

Видео
Идентификатор : 1
Формат : AVC
Формат/Информация : Advanced Video Codec
Профиль формата : High@L4.0
Параметр CABAC формата : Да
Параметр ReFrames формата : 4 кадра
Режим смешивания : Header stripping
Идентификатор кодека : V_MPEG4/ISO/AVC
Продолжительность : 1 ч. 38 м.
Битрейт : 4870 Кбит/сек
Ширина : 1916 пикселей
Высота : 1036 пикселей
Соотношение сторон : 16:9
Частота кадров : 23,976 кадра/сек
Цветовое пространство : YUV
Субдискретизация насыщенности : 4:2:0
Битовая глубина : 8 бит
Тип развёртки : Прогрессивная
Бит/(Пиксели*Кадры) : 0.102
Размер потока : 3,34 Гбайт (88%)
Заголовок : ELiTE
Язык : English
Default : Да
Forced : Нет
Основные цвета : BT.709-5, BT.1361, IEC 61966-2-4, SMPTE RP177
Характеристики трансфера : BT.709-5, BT.1361
Коэффициенты матрицы : BT.709-5, BT.1361, IEC 61966-2-4 709, SMPTE RP177

Аудио #1
Идентификатор : 2
Формат : AC-3
Формат/Информация : Audio Coding 3
Расширение режима : CM (complete main)
Режим смешивания : Header stripping
Идентификатор кодека : A_AC3
Продолжительность : 1 ч. 38 м.
Вид битрейта : Постоянный
Битрейт : 192 Кбит/сек
Каналы : 2 канала
Расположение каналов : Front: L R
Частота : 48,0 КГц
Битовая глубина : 16 бит
Метод сжатия : С потерями
Размер потока : 135 Мбайт (3%)
Default : Да
Forced : Нет

Аудио #2
Идентификатор : 3
Формат : AC-3
Формат/Информация : Audio Coding 3
Расширение режима : CM (complete main)
Режим смешивания : Header stripping
Идентификатор кодека : A_AC3
Продолжительность : 1 ч. 38 м.
Вид битрейта : Постоянный
Битрейт : 384 Кбит/сек
Каналы : 6 каналов
Расположение каналов : Front: L C R, Side: L R, LFE
Частота : 48,0 КГц
Битовая глубина : 16 бит
Метод сжатия : С потерями
Размер потока : 270 Мбайт (7%)
Заголовок : ENGLiSH AUDiO AC3 6 chnl kbps
Язык : English
Default : Нет
Forced : Нет
Свернуть

"Скриншоты"
Изображение
Изображение
Изображение
Свернуть

Раздача группы:
Изображение
Не в сети
Профиль  
 Добавлено: 2013-05-15 12:39 (спустя 2 часа 23 минуты)
Стаж: 8 лет 10 месяцев
Сообщений: 143
Спасибок: 37
Лайков: 11
Качество как у видео, так и у звука хорошее . Всем качать
Не в сети
Профиль  
 Добавлено: 2013-05-15 14:27 (спустя 1 час 47 минут)
Top-seeder
Аватара пользователя
Стаж: 8 лет 8 месяцев
Возраст: 26
Сообщений: 665
Спасибок: 2687
Лайков: 2
мда фанат орешка с детства но это омерзительно просто
Не в сети
Профиль  
 Добавлено: 2013-05-17 00:08 (спустя 1 день 9 часов)
Аватара пользователя
Стаж: 8 лет 2 месяца
Сообщений: 70
Спасибок: 41
fullhd полнометражный фильм на 3.8Гб - это как?
Не в сети
Профиль  
 Добавлено: 2013-05-17 21:42 (спустя 21 час)
Аватара пользователя
Стаж: 9 лет 1 месяц
Сообщений: 33
Спасибок: 72

Daft13:

fullhd полнометражный фильм на 3.8Гб - это как?
it's a rip, baby... it's a rip... )))
Не в сети
Профиль  
 Добавлено: 2013-05-17 23:13 (спустя 1 час 31 минута)
Модератор
Аватара пользователя
Стаж: 9 лет
Сообщений: 3446
Спасибок: 1556
Лайков: 77
Кусок отборного говна !!!
_________________
Пока тут пусто.
Не в сети
Профиль  
 Добавлено: 2013-05-18 16:02 (спустя 16 часов)
Аватара пользователя
Стаж: 5 лет 7 месяцев
Сообщений: 21
говно говно говно говно говно говно говно говно и еще раз говно. Не досмотрел. Не смог. Блин даже наверное не стоит качать. Никогда. Никому.

Добавлено спустя 1 минута:
за раздачу спасибо но там чувак в начале написал всем качать-не качайте никто.
Не в сети
Профиль  
 Добавлено: 2013-05-21 20:35 (спустя 3 дня)
Аватара пользователя
Стаж: 8 лет 11 месяцев
Сообщений: 74
Спасибок: 8
на редкость тупой фильм. Первые 3 части были с гениальными злодеями, интересными злодеями. а здесь просто ходит лысый мужик и всех валит. примерно тоже самое что хитмана посмотреть
Не в сети
Профиль  
 Добавлено: 2013-05-23 07:50 (спустя 1 день 11 часов)
Аватара пользователя
Стаж: 8 лет 11 месяцев
Сообщений: 512
Спасибок: 39
Лайков: 49
Фильм просто супер, такого гения я давно ждал, наконец то просто шикарнейший фильм, одна только сцена погони в москве так приятна глазу, бьют дорогие тачки поганых москалей, спецэффекты почти все натуральные без компографы, Брюс как всегда навысоте, сыграл ну просто изумительно, а все отрицательные отзывы - выкидышы зажравшихся, обленившихся до нельзя, избалованных судьбой мажоров, которым подавай всё круче и круче и всё равно им будет мало. Фильм смотрится на одном дыхании, а "когда кроет матом таксист" он получает в торец от Макклейна. Не подумайте что этот фильм только брутальный бесчувственный боевик, здесь затронуты такие человеческие взаимоотношения как предательство родных, любовь, алчность, преданность своей Родине, также показаны сложные взаимоотношения между отцом и сыном, порой противоречивые. Я ничуть нехочу обсирать предыдущие четыре части орешков, но всё таки на фоне этого творения они выглядят как то слабовато, недотягивают что ли. Вобщем, так держать, с нетерпением ждём 6-й части.
Не в сети
Профиль  
 Добавлено: 2013-05-26 11:42 (спустя 3 дня)
Модератор
Аватара пользователя
Стаж: 8 лет 11 месяцев
Сообщений: 516
Спасибок: 26888
Лайков: 1
viewtopic.php?f=1750&t=509317
Не в сети
Профиль  
Начать новую темуОтветить на тему  [ Сообщений: 10 ] 
Вы не можете начинать темы
Вы не можете отвечать на сообщения
Вы не можете редактировать свои сообщения
Вы не можете удалять свои сообщения