Правила форума

Здесь находятся раздачи, на которых не было полного источника (сида) более месяца.
Вы можете вернуть релиз в соответствующий раздел, для этого напишите нам в специальной теме и встаньте на раздачу.
Новые релизы, повторяющие релизы в архиве, повторами не считаются.
Начать новую темуОтветить на тему  [ Сообщений: 6 ] 
Сообщения
 Добавлено: 2013-08-24 14:30
Top-releaser
Аватара пользователя
Стаж: 8 лет 9 месяцев
Сообщений: 479
Спасибок: 20190
Лайков: 16
Изображение

Изображение

Pain & Gain


«Мечтай по-крупному»

Год выпуска: 2013
Страна: Изображение США; De Line Pictures, Изображение Paramount Pictures
Жанр: Криминал, комедия, триллер, боевик
Продолжительность: 02:09:37
Перевод: Профессиональный (дублированный) [Чистый звук], Оригинал
Субтитры: Английские

Режиссёр: Майкл Бэй / Michael Bay

В ролях: ДМарк Уолберг, Дуэйн Джонсон, Энтони Маки, Тони Шэлуб, Эд Харрис, Кен Жонг, Иоланта Кабау ван Касберген, Виорика Пинеда, Роб Кордри, Ребел Уилсон

Описание: Однажды тренеру по фитнесу надоело ходить в трениках. Он решил круто изменить свою судьбу и разбогатеть. Нашел двух других незадачливых качков и предложил им план похищения своего клиента-миллионера. Но если в организме мышц больше, чем мозгов, то даже самый лучший план, подсмотренный в экшен-боевике, может не сработать…


Качество: BDRip 720p
Формат: MKV

Видео: AVC at 5634 Кбит/сек, 1280 x 534 (2.397) at 23.976 fps

Аудио 1: AC-3 at 448 Кбит/сек, 6 канала(ов), 48,0 КГц [Дубляж]
Аудио 2: AC-3 at 640 Кбит/сек, 6 канала(ов), 48,0 КГц [Оригинал]
Раздача: Изображение

Изображение
MediaInfo

Общее
Уникальный идентификатор : 209283861931680805856983658078050948898 (0x9D729B0C585EFFACBE8C6166D62B9722)
Полное имя : C:\Users\Домашний\Desktop\Pain.and.Gain.2013.720p.[nntt].mkv
Формат : Matroska
Размер файла : 6,21 Гбайт
Продолжительность : 2 ч. 9 м.
Общий поток : 6858 Кбит/сек
Дата кодирования : UTC 2013-08-24 08:00:32
Программа кодирования : mkvmerge v4.9.1 ('Ich will') built on Jul 11 2011 23:53:15
Библиотека кодирования : libebml v1.2.1 + libmatroska v1.1.1

Видео
Идентификатор : 1
Формат : AVC
Формат/Информация : Advanced Video Codec
Профиль формата : High@L4.1
Параметр CABAC формата : Да
Параметр ReFrames формата : 12 кадры
Параметры GOP формата : M=9, N=33
Идентификатор кодека : V_MPEG4/ISO/AVC
Продолжительность : 2 ч. 9 м.
Битрейт : 5634 Кбит/сек
Ширина : 1280 пикс.
Высота : 534 пикс.
Соотношение сторон : 2,35:1
Частота кадров : 23,976 кадр/сек
Цветовое пространство : YUV
Подвыборка цветности : 4:2:0
Битовая глубина : 8 бит
Тип развёртки : Прогрессивная
Бит/(Пиксели*Кадры) : 0.344
Размер потока : 5,10 Гбайт (82%)
Библиотека кодирования : x264 core 132 r2323+704+51 d571b1c tMod [8-bit@4:2:0 X86_64]
Настройки программы : cabac=1 / ref=12 / deblock=1:-3:-3 / analyse=0x3:0x133 / me=umh / subme=11 / psy=1 / fade_compensate=0.00 / psy_rd=1.00:0.00 / mixed_ref=1 / me_range=32 / chroma_me=1 / trellis=2 / 8x8dct=1 / cqm=0 / deadzone=21,11 / fast_pskip=0 / chroma_qp_offset=-2 / threads=36 / lookahead_threads=4 / sliced_threads=0 / nr=0 / decimate=0 / interlaced=0 / bluray_compat=0 / constrained_intra=0 / fgo=0 / bframes=8 / b_pyramid=2 / b_adapt=2 / b_bias=0 / direct=3 / weightb=1 / open_gop=0 / weightp=2 / keyint=240 / keyint_min=24 / scenecut=40 / intra_refresh=0 / rc=crf / mbtree=0 / crf=17.5000 / qcomp=0.70 / qpmin=0 / qpmax=69 / qpstep=4 / ip_ratio=1.20 / pb_ratio=1.20 / aq=4:0.85 / aq-sensitivity=10.00 / aq-factor=1.00:1.00:1.00 / aq2=0 / aq3=0
Язык : English

Аудио #1
Идентификатор : 2
Формат : AC-3
Формат/Информация : Audio Coding 3
Расширение режима : CM (complete main)
Идентификатор кодека : A_AC3
Продолжительность : 2 ч. 9 м.
Вид битрейта : Постоянный
Битрейт : 448 Кбит/сек
Канал(ы) : 6 канала(ов)
Расположение каналов : Front: L C R, Side: L R, LFE
Частота : 48,0 КГц
Битовая глубина : 16 бит
Метод сжатия : С потерями
Размер потока : 415 Мбайт (7%)
Язык : Russian

Аудио #2
Идентификатор : 3
Формат : AC-3
Формат/Информация : Audio Coding 3
Расширение режима : CM (complete main)
Идентификатор кодека : A_AC3
Продолжительность : 2 ч. 9 м.
Вид битрейта : Постоянный
Битрейт : 640 Кбит/сек
Канал(ы) : 6 канала(ов)
Расположение каналов : Front: L C R, Side: L R, LFE
Частота : 48,0 КГц
Битовая глубина : 16 бит
Метод сжатия : С потерями
Размер потока : 593 Мбайт (9%)

Текст
Идентификатор : 4
Формат : UTF-8
Идентификатор кодека : S_TEXT/UTF8
Идентификатор кодека/Информация : UTF-8 Plain Text
Язык : English


Свернуть
Скриншоты

Изображение
Изображение
Изображение
Изображение
Изображение
Свернуть
_________________
Изображение
Изображение
Не в сети
Профиль  
 Добавлено: 2013-08-24 14:50 (спустя 19 минут)
Стаж: 5 лет 3 месяца
Сообщений: 3
Че то не закачивает
Не в сети
Профиль  
 Добавлено: 2013-08-29 21:52 (спустя 5 дней)
Аватара пользователя
Стаж: 8 лет
Сообщений: 1393
Спасибок: 39
Лайков: 64
Перевод: Профессиональный Любительский!!! (дублированный) - хоть и оч неплохой, Дэна и эту мямлю ДэдСноу ни с кем не спутать!!! Фильм тупой безбашенный...ну как в описании, но не дешовка - Бэй как-никак...кач-во видео :co_ol:
Не в сети
Профиль  
 Добавлено: 2013-08-29 22:58 (спустя 1 час 6 минут)
Аватара пользователя
Стаж: 8 лет 11 месяцев
Сообщений: 43
А про гоблинский перевод не слышно, будет ли?
Не в сети
Профиль  
 Добавлено: 2013-09-02 11:05 (спустя 3 дня)
Аватара пользователя
Стаж: 6 лет 11 месяцев
Сообщений: 323
Лайков: 15
Фильм афигенный, снят на реальных событиях, но сделан как комедия классно, всем советую ржака! ;;-)))
Не в сети
Профиль  
 Добавлено: 2013-09-06 16:06 (спустя 4 дня)
Модератор
Аватара пользователя
Стаж: 8 лет 11 месяцев
Сообщений: 516
Спасибок: 26888
Лайков: 1
viewtopic.php?f=1743&t=516870
Не в сети
Профиль  
Начать новую темуОтветить на тему  [ Сообщений: 6 ] 
Вы не можете начинать темы
Вы не можете отвечать на сообщения
Вы не можете редактировать свои сообщения
Вы не можете удалять свои сообщения