Правила форума

Здесь находятся раздачи, на которых не было полного источника (сида) более месяца.
Вы можете вернуть релиз в соответствующий раздел, для этого напишите нам в специальной теме и встаньте на раздачу.
Новые релизы, повторяющие релизы в архиве, повторами не считаются.
Начать новую темуОтветить на тему  [ Сообщений: 3 ] 
Сообщения
 Добавлено: 2012-06-24 10:50
Книголюб
Аватара пользователя
Стаж: 7 лет 2 месяца
Сообщений: 2823
Спасибок: 48828
Лайков: 73
Крутой чувак
Bad Ass

Изображение


Год выпуска: 2011
Страна: США
Слоган: «They messed with the wrong senior citizen.»
Жанр: боевик, драма
Продолжительность: 01:30:01
Перевод: Любительский (многоголосый закадровый)

Режиссёр: Крэйг Мосс
В ролях: Дэнни Трэхо, Рон Перлман, Чарльз С. Даттон, Джойфул Дрэйк, Патрик Фабиан, Джон Даффи, Винтер Эйв Золи, Дэнни Вудберн, Дэвид Арнольд
Описание: Фрэнк Вега становится звездой местного масштаба после интернет-ролика, где он разбирается со шпаной в автобусе. Вскоре убивают лучшего друга Фрэнка. «Крутой Чувак» решает разобраться с этим как умеет.
Рейтинг MPAA: Рейтинг R (Подростки до 17 лет допускаются на фильм только в сопровождении одного из родителей)
Мировая премьера: 13 апреля 2012
Изображение 5.607 639

Качество: BDRip 720p
Формат: MKV
Видео кодек: H.264
Аудио кодек: AC3 (Dolby Digital)
Видео: 6767 kb/s, 1280x690
Аудио #1: MPEG Audio Layer 3 48000Hz stereo:Russian
Аудио #2: DTS 48000Hz 6ch:English
MediaInfo
General
Unique ID : 205953802107769268300271758082639049413 (0x9AF1426C3B29A02880444F629E3AB2C5)
Complete name : K:\Krutoy chuvak.mkv
Format : Matroska
Format version : Version 2
File size : 5.40 GiB
Duration : 1h 30mn
Overall bit rate : 8 576 Kbps
Movie name : ~C3PO~
Encoded date : UTC 2012-05-26 18:42:23
Writing application : mkvmerge v5.5.0 ('Healer') built on Apr 6 2012 21:43:24
Writing library : libebml v1.2.3 + libmatroska v1.3.0

Video
ID : 1
Format : AVC
Format/Info : Advanced Video Codec
Format profile : High@L4.1
Format settings, CABAC : Yes
Format settings, ReFrames : 9 frames
Codec ID : V_MPEG4/ISO/AVC
Duration : 1h 30mn
Bit rate : 6 768 Kbps
Width : 1 280 pixels
Height : 690 pixels
Display aspect ratio : 1.855
Frame rate : 23.976 fps
Color space : YUV
Chroma subsampling : 4:2:0
Bit depth : 8 bits
Scan type : Progressive
Bits/(Pixel*Frame) : 0.320
Stream size : 4.26 GiB (79%)
Writing library : x264 core 116 r2057 0ba8a9c
Encoding settings : cabac=1 / ref=9 / deblock=1:-3:-3 / analyse=0x3:0x133 / me=umh / subme=10 / psy=1 / psy_rd=1.00:0.00 / mixed_ref=1 / me_range=32 / chroma_me=1 / trellis=2 / 8x8dct=1 / cqm=0 / deadzone=21,11 / fast_pskip=0 / chroma_qp_offset=-2 / threads=18 / sliced_threads=0 / nr=0 / decimate=0 / interlaced=0 / bluray_compat=0 / constrained_intra=0 / bframes=7 / b_pyramid=2 / b_adapt=2 / b_bias=0 / direct=3 / weightb=1 / open_gop=0 / weightp=2 / keyint=250 / keyint_min=23 / scenecut=40 / intra_refresh=0 / rc_lookahead=40 / rc=crf / mbtree=0 / crf=17.0 / qcomp=0.65 / qpmin=0 / qpmax=40 / qpstep=4 / vbv_maxrate=50000 / vbv_bufsize=50000 / crf_max=0.0 / nal_hrd=none / ip_ratio=1.25 / pb_ratio=1.25 / aq=1:0.65
Language : English
Default : No
Forced : No

Audio #1
ID : 2
Format : MPEG Audio
Format version : Version 1
Format profile : Layer 3
Mode : Joint stereo
Mode extension : MS Stereo
Codec ID : A_MPEG/L3
Codec ID/Hint : MP3
Duration : 1h 30mn
Bit rate mode : Constant
Bit rate : 128 Kbps
Channel(s) : 2 channels
Sampling rate : 48.0 KHz
Compression mode : Lossy
Stream size : 82.5 MiB (1%)
Writing library : LAME3.99.4ЄЄЄЄЄЄЄЄЄЄ
Language : Russian
Default : Yes
Forced : No

Audio #2
ID : 3
Format : DTS
Format/Info : Digital Theater Systems
Codec ID : A_DTS
Duration : 1h 30mn
Bit rate mode : Constant
Bit rate : 1 510 Kbps
Channel(s) : 6 channels
Channel positions : Front: L C R, Side: L R, LFE
Sampling rate : 48.0 KHz
Bit depth : 24 bits
Compression mode : Lossy
Stream size : 974 MiB (18%)
Language : English
Default : No
Forced : No

Text
ID : 4
Format : UTF-8
Codec ID : S_TEXT/UTF8
Codec ID/Info : UTF-8 Plain Text
Language : English
Default : No
Forced : No


Свернуть

Скриншоты
Изображение
Изображение
Изображение
Свернуть


Последний раз редактировалось coldun 2012-06-28 13:29, всего редактировалось 1 раз.
Не в сети
Профиль  
 Добавлено: 2012-06-24 15:17 (спустя 4 часа)
Аватара пользователя
Стаж: 8 лет 3 месяца
Сообщений: 106
Спасибок: 21
Лайков: 7
перевод какой чёто непонятно)везде професиональный а тут любительский?
Не в сети
Профиль  
 Добавлено: 2012-06-28 14:46 (спустя 3 дня)
Руководитель релиз-группы
Аватара пользователя
Стаж: 7 лет 5 месяцев
Возраст: 31
Сообщений: 3406
Спасибок: 46729
Лайков: 5
viewtopic.php?f=1743&t=472350
Не в сети
Профиль  
Начать новую темуОтветить на тему  [ Сообщений: 3 ] 
Вы не можете начинать темы
Вы не можете отвечать на сообщения
Вы не можете редактировать свои сообщения
Вы не можете удалять свои сообщения