Правила форума

Здесь находятся раздачи, на которых не было полного источника (сида) более месяца.
Вы можете вернуть релиз в соответствующий раздел, для этого напишите нам в специальной теме и встаньте на раздачу.
Новые релизы, повторяющие релизы в архиве, повторами не считаются.
Начать новую темуОтветить на тему  [ Сообщений: 6 ] 
Сообщения
 Добавлено: 2013-05-24 21:08
DVD Release Group
Аватара пользователя
Стаж: 7 лет 1 месяц
Сообщений: 3559
Спасибок: 247400
Лайков: 1018
Легенда №17


Изображение


Год выпуска: 2013
Страна: Россия
Жанр: Спорт, драма, биография
Продолжительность: 02:13:53
Режиссер: Николай Лебедев
В ролях: Данила Козловский, Олег Меньшиков, Владимир Меньшов, Борис Щербаков, Роман Мадянов, Светлана Иванова, Дарья Екамасова, Гёц Отто, Алехандра Грепи, Александр Рагулин
Описание: 2 сентября 1972 года. Монреаль. Хоккейная сборная СССР с разгромным счетом 7:3 победила канадских профессионалов из НХЛ в стартовом матче эпохальной Суперсерии СССР-Канада. Это была не просто игра, это была битва за свою страну, которая перевернула мировое представление о хоккее.
Теперь весь мир знал его просто по номеру «17». Валерий Харламов, забивший в том матче 2 шайбы, мгновенно взлетел на вершину славы. Сбылась его мечта -упорство, спортивный талант и суровые уроки великого тренера Анатолия Тарасова сделали из «номера 17» легенду мирового хоккея.
Изображение
Sample:
http://sendfile.su/815755
Качество: BDRip 720p
Формат: MKV
Видео кодек: H264
Аудио кодек: DTS
Видео: 1280x536 24fps 5901kbps
Аудио: 48kHz 6ch 1510kbps
"MediaInfo"
Формат : Matroska
Версия формата : Version 2
Размер файла : 7,07 Гбайт
Продолжительность : 2 ч. 13 м.
Общий поток : 7561 Кбит/сек
Дата кодирования : UTC 2013-05-24 14:45:39
Программа кодирования : mkvmerge v5.2.0 ('I can't explain') built on Dec 18 2011 18:12:03
Библиотека кодирования : libebml v1.2.3 + libmatroska v1.3.0

Видео
Идентификатор : 1
Формат : AVC
Формат/Информация : Advanced Video Codec
Профиль формата : High@L4.1
Параметр CABAC формата : Да
Параметр ReFrames формата : 5 кадров
Идентификатор кодека : V_MPEG4/ISO/AVC
Продолжительность : 2 ч. 13 м.
Битрейт : 5901 Кбит/сек
Ширина : 1280 пикселей
Высота : 536 пикселей
Соотношение сторон : 2,40:1
Частота кадров : 24,000 кадра/сек
Цветовое пространство : YUV
Субдискретизация насыщенности : 4:2:0
Битовая глубина : 8 бит
Тип развёртки : Прогрессивная
Бит/(Пиксели*Кадры) : 0.358
Размер потока : 5,52 Гбайт (78%)
Библиотека кодирования : x264 core 130 r2273 b3065e6
Настройки программы : cabac=1 / ref=5 / deblock=1:-1:-1 / analyse=0x3:0x113 / me=dia / subme=1 / psy=1 / psy_rd=1.00:0.15 / mixed_ref=1 / me_range=16 / chroma_me=1 / trellis=1 / 8x8dct=1 / cqm=0 / deadzone=21,11 / fast_pskip=1 / chroma_qp_offset=-1 / threads=12 / lookahead_threads=2 / sliced_threads=0 / nr=0 / decimate=1 / interlaced=0 / bluray_compat=0 / constrained_intra=0 / bframes=3 / b_pyramid=2 / b_adapt=1 / b_bias=0 / direct=1 / weightb=1 / open_gop=0 / weightp=2 / keyint=250 / keyint_min=23 / scenecut=40 / intra_refresh=0 / rc_lookahead=40 / rc=crf / mbtree=1 / crf=18.2 / qcomp=0.60 / qpmin=0 / qpmax=69 / qpstep=4 / ip_ratio=1.40 / aq=1:1.00
Язык : Russian
Default : Да
Forced : Нет

Аудио
Идентификатор : 2
Формат : DTS
Формат/Информация : Digital Theater Systems
Идентификатор кодека : A_DTS
Продолжительность : 2 ч. 13 м.
Вид битрейта : Постоянный
Битрейт : 1510 Кбит/сек
Каналы : 6 каналов
Расположение каналов : Front: L C R, Side: L R, LFE
Частота : 48,0 КГц
Битовая глубина : 16 бит
Метод сжатия : С потерями
Размер потока : 1,41 Гбайт (20%)
Язык : Russian
Default : Да
Forced : Нет
Свернуть

"Скриншоты"
Изображение
Изображение
Изображение
Свернуть

Раздача группы:
Изображение
Не в сети
Профиль  
 Добавлено: 2013-05-24 22:07 (спустя 59 минут)
Аватара пользователя
Стаж: 3 года 7 месяцев
Возраст: 36
Сообщений: 212
Спасибок: 1248
спасибо
Не в сети
Профиль  
 Добавлено: 2013-05-24 22:17 (спустя 9 минут)
Аватара пользователя
Стаж: 7 лет 11 месяцев
Сообщений: 22
спасибо :dan_ser: :co_ol: :bra_vo:
Не в сети
Профиль  
 Добавлено: 2013-05-25 08:15 (спустя 9 часов)
Руководитель релиз-группы
Аватара пользователя
Стаж: 7 лет 5 месяцев
Возраст: 31
Сообщений: 3406
Спасибок: 46729
Лайков: 5
сцена :par_don:
Не в сети
Профиль  
 Добавлено: 2013-05-25 12:57 (спустя 4 часа)
Аватара пользователя
Стаж: 9 лет
Возраст: 32
Сообщений: 269
Спасибок: 2183
Лайков: 9
почему раздача "Т - Временный релиз"??
Не в сети
Профиль  
 Добавлено: 2013-05-25 20:26 (спустя 7 часов)
Руководитель релиз-группы
Аватара пользователя
Стаж: 7 лет 5 месяцев
Возраст: 31
Сообщений: 3406
Спасибок: 46729
Лайков: 5
dvd-i-hd-filmi-f1743/legenda-17-nikolay-lebedev-r5-t509360.html
Не в сети
Профиль  
Начать новую темуОтветить на тему  [ Сообщений: 6 ] 
Вы не можете начинать темы
Вы не можете отвечать на сообщения
Вы не можете редактировать свои сообщения
Вы не можете удалять свои сообщения