Правила форума

Здесь находятся раздачи, на которых не было полного источника (сида) более месяца.
Вы можете вернуть релиз в соответствующий раздел, для этого напишите нам в специальной теме и встаньте на раздачу.
Новые релизы, повторяющие релизы в архиве, повторами не считаются.
Начать новую темуОтветить на тему  [ Сообщений: 2 ] 
Сообщения
 Добавлено: 2012-08-20 17:39
Top-releaser
Аватара пользователя
Стаж: 6 лет 7 месяцев
Сообщений: 2078
Спасибок: 3229
Лайков: 9
Изображение

Лысый нянька: Спецзадание / The Pacifier


Год выпуска: 2005
Страна: США, Канада
Слоган: «Добро пожаловать в пехоту.»
Жанр: боевик, триллер, драма, комедия, семейный
Продолжительность: 01:35:20
Перевод: Профессиональный (полное дублирование)
Режиссер: Адам Шенкман
Сценарий: Томас Леннон, Роберт Бен Гарант
Оператор: Питер Джеймс
Композитор: Джон Дебни
В ролях: Вин Дизель, Лорен Грэм, Фэйт Форд, Бриттани Сноу, Макс Тириот, Крис Поттер, Кэрол Кейн, Брэд Гэррет, Морган Йорк
Бюджет: $56 000 000
Сборы в мире: $198 636 868
Описание: История о бывшем морском пехотинце, охраняющем работающего на правительство ученого и пятерых его детей. Как показывает практика, детей нужно охранять не только от злоумышленников, но и от них самих. Причем не следует забывать и о собственной безопасности. Их ведь пятеро, и все они чрезвычайно коварны.
Изображение
Раздача группы: Изображение
Качество: BDRip, 720p
Формат: Matroska
Видео: AVC; 1280x534 (2.35:1); 5669 Kbps; 23,976 fps; 0,346 bit/pixel
Аудио №1: Russian; AC3; 384 Kbps; CBR; 6 ch
Аудио №2: English; AC3; 640 Kbps; CBR; 6 ch
Субтитры: Russian, English

"Знаете ли Вы, что..."
  • Вин Дизелю настолько понравилось играть со своим 9-месячным партнёром, что готов был работать на площадке даже в выходные.
Свернуть
MediaInfo
Общее
Уникальный идентификатор : 240385207636346580124330927591203603055 (0xB4D881C7F6C7E8F8A418DE254101026F)
Полное имя : Z:\WWW\TR-Downloads\The.Pacifier.720p[R.G.Daredevil].mkv
Формат : Matroska
Версия формата : Version 2
Размер файла : 4,55 Гбайт
Продолжительность : 1 ч. 35 м.
Общий поток : 6830 Кбит/сек
Дата кодирования : UTC 2011-09-13 10:12:52
Программа кодирования : mkvmerge v4.9.1 ('Ich will') built on Sep 7 2011 09:09:18
Библиотека кодирования : libebml v1.2.1 + libmatroska v1.2.0

Видео
Идентификатор : 1
Формат : AVC
Формат/Информация : Advanced Video Codec
Профиль формата : High@L4.1
Параметр CABAC формата : Да
Параметр ReFrames формата : 12 кадров
Идентификатор кодека : V_MPEG4/ISO/AVC
Продолжительность : 1 ч. 35 м.
Битрейт : 5670 Кбит/сек
Ширина : 1280 пикселей
Высота : 534 пикселя
Соотношение сторон : 2,40:1
Частота кадров : 23,976 кадра/сек
Цветовое пространство : YUV
Субдискретизация насыщенности : 4:2:0
Битовая глубина : 8 бит
Тип развёртки : Прогрессивная
Бит/(Пиксели*Кадры) : 0.346
Размер потока : 3,78 Гбайт (83%)
Заголовок : CRiSC
Библиотека кодирования : x264 core 113 r1884 7313bb5
Настройки программы : cabac=1 / ref=12 / deblock=1:-3:-3 / analyse=0x3:0x133 / me=umh / subme=10 / psy=1 / psy_rd=1.00:0.05 / mixed_ref=1 / me_range=64 / chroma_me=1 / trellis=2 / 8x8dct=1 / cqm=0 / deadzone=21,11 / fast_pskip=0 / chroma_qp_offset=-3 / threads=12 / sliced_threads=0 / nr=0 / decimate=0 / interlaced=0 / constrained_intra=0 / bframes=7 / b_pyramid=2 / b_adapt=2 / b_bias=0 / direct=1 / weightb=1 / open_gop=0 / weightp=2 / keyint=250 / keyint_min=23 / scenecut=40 / intra_refresh=0 / rc_lookahead=40 / rc=crf / mbtree=0 / crf=17.5 / qcomp=0.60 / qpmin=0 / qpmax=69 / qpstep=4 / vbv_maxrate=50000 / vbv_bufsize=62500 / crf_max=0.0 / nal_hrd=none / ip_ratio=1.40 / pb_ratio=1.30 / aq=1:0.80
Язык : English
Default : Да
Forced : Нет
Основные цвета : BT.709-5, BT.1361, IEC 61966-2-4, SMPTE RP177
Характеристики трансфера : BT.709-5, BT.1361
Коэффициенты матрицы : BT.709-5, BT.1361, IEC 61966-2-4 709, SMPTE RP177

Аудио #1
Идентификатор : 2
Формат : AC-3
Формат/Информация : Audio Coding 3
Расширение режима : CM (complete main)
Параметр Endianness формата : Big
Идентификатор кодека : A_AC3
Продолжительность : 1 ч. 35 м.
Вид битрейта : Постоянный
Битрейт : 384 Кбит/сек
Каналы : 6 каналов
Расположение каналов : Front: L C R, Side: L R, LFE
Частота : 48,0 КГц
Битовая глубина : 16 бит
Метод сжатия : С потерями
Размер потока : 262 Мбайт (6%)
Заголовок : AC3 5.1 384 kbps DUB
Язык : Russian
Default : Да
Forced : Нет

Аудио #2
Идентификатор : 3
Формат : AC-3
Формат/Информация : Audio Coding 3
Расширение режима : CM (complete main)
Параметр Endianness формата : Big
Идентификатор кодека : A_AC3
Продолжительность : 1 ч. 35 м.
Вид битрейта : Постоянный
Битрейт : 640 Кбит/сек
Каналы : 6 каналов
Расположение каналов : Front: L C R, Side: L R, LFE
Частота : 48,0 КГц
Битовая глубина : 16 бит
Метод сжатия : С потерями
Размер потока : 436 Мбайт (9%)
Заголовок : AC3 5.1 640 kbps
Язык : English
Default : Нет
Forced : Нет

Текст #1
Идентификатор : 4
Формат : UTF-8
Идентификатор кодека : S_TEXT/UTF8
Идентификатор кодека/Информация : UTF-8 Plain Text
Язык : Russian
Default : Нет
Forced : Нет

Текст #2
Идентификатор : 5
Формат : UTF-8
Идентификатор кодека : S_TEXT/UTF8
Идентификатор кодека/Информация : UTF-8 Plain Text
Язык : English
Default : Нет
Forced : Нет

Меню
00:00:00.000 : en:To the Rescue
00:06:02.988 : en:New Mission
00:15:39.480 : en:Shane's Rules
00:20:49.290 : en:Helga Quits
00:25:05.170 : en:School Day
00:33:03.899 : en:A Little Emergency
00:36:11.961 : en:The New Den Mother
00:41:02.877 : en:Home Invasion
00:46:39.505 : en:Seth the Performer
00:53:54.481 : en:Driving Lesson
00:57:30.489 : en:Friendly Wrestling Match
01:01:50.999 : en:Part of the Family
01:09:55.608 : en:Mom's Fateful Return
01:19:56.458 : en:Discovering the Ghost
01:25:33.837 : en:One More Mission
01:29:54.014 : en:End Credits
Свернуть
Скриншоты
Изображение
Изображение
Изображение
Изображение
Изображение
Свернуть
Не в сети
Профиль  
 Добавлено: 2012-08-20 22:04 (спустя 4 часа)
Аватара пользователя
Стаж: 6 лет 5 месяцев
Сообщений: 19944
Спасибок: 721
Лайков: 461
:du_ma_et:
_________________
It was I'am ... :jn_pu_sk:
Медали и Ордена
ИзображениеИзображение
Свернуть
Не в сети
Профиль  
Начать новую темуОтветить на тему  [ Сообщений: 2 ] 
Вы не можете начинать темы
Вы не можете отвечать на сообщения
Вы не можете редактировать свои сообщения
Вы не можете удалять свои сообщения