Правила форума

Здесь находятся раздачи, на которых не было полного источника (сида) более месяца.
Вы можете вернуть релиз в соответствующий раздел, для этого напишите нам в специальной теме и встаньте на раздачу.
Новые релизы, повторяющие релизы в архиве, повторами не считаются.
Начать новую темуОтветить на тему  [ 1 сообщение ] 
Сообщения
 Добавлено: 2011-09-15 06:23
DVD Release Group
Аватара пользователя
Стаж: 7 лет 1 месяц
Сообщений: 3570
Спасибок: 247823
Лайков: 1020
Ловушка

The Resident

«Твой дом - его крепость»


Изображение


Год выпуска: 2011
Страна: США , Великобритания
Жанр: Ужасы, триллер, драма
Продолжительность: 01:31:19
Перевод: Профессиональный (многоголосый, закадровый) Лицензия
Субтитры: Русские, английские
Режиссер: Антти Джокинен
В ролях: Джеффри Дин Морган, Хилари Суэнк, Кристофер Ли, Ли Пейс, Майкл Масси, Онжаню Эллис, Кейша Олсен, Пенни Бальфур, Александрия Морроу, Сэнди К Шелби и др.
Описание: Миллионы одиноких женщин снимают квартиры. Они не задумываются о том, кто жил там до них. Они не знают хозяев. Им не приходит в голову сменить замок.Расставшись с мужем, молодая врач Джульет Дермер начинает новую жизнь в просторном съемном лофте. Недорогая квартира оказывается настолько хороша, что Джулия не может поверить своему счастью. Вскоре, однако, она начинает подозревать, что не одна в собственном доме. С ужасом она осознает, что симпатичный домовладелец Макс избрал ее для своей маниакальной игры в кошки-мышки.
Премьера (мир) ............ 3 ноября 2010
Премьера (РФ) ............ 25 августа 2011, «Вольга»
Релиз на DVD ............ 15 сентября 2011, «Вольга»
КиноПоиск: 5.123 (929)
IMDb: 5.20 (6929)
Sample:
http://multi-up.com/557461
Качество: BDRip 720p
Формат: MKV
Видео кодек: H.264
Аудио кодек: AC3
Видео: 1280x544 (2.35:1), 23.976 fps, 6 000 Kbps, 0.359 Qf
Аудио:
Аудио Rus: 48.0 kHz, 6 ch, 256 kbps
Аудио Eng: 48.0 kHz, 6 ch, 640 kbps
"MediaInfo"

General
Complete name : Ловушка.mkv
Format : Matroska
File size : 4.40 GiB
Duration : 1h 31mn
Overall bit rate : 6 893 Kbps
Encoded date : UTC 2011-09-14 21:34:15
Writing application : mkvmerge v4.8.0 ('I Got The...') сборка от May 24 2011 03:12:58
Writing library : libebml v1.2.0 + libmatroska v1.1.0

Video
ID : 1
Format : AVC
Format/Info : Advanced Video Codec
Format profile : High@L4.1
Format settings, CABAC : Yes
Format settings, ReFrames : 12 frames
Muxing mode : Header stripping
Codec ID : V_MPEG4/ISO/AVC
Duration : 1h 31mn
Bit rate : 6 000 Kbps
Width : 1 280 pixels
Height : 544 pixels
Display aspect ratio : 2.35:1
Frame rate : 23.976 fps
Color space : YUV
Chroma subsampling : 4:2:0
Bit depth : 8 bits
Scan type : Progressive
Bits/(Pixel*Frame) : 0.359
Stream size : 3.74 GiB (85%)
Title : x264 6000 kbps
Writing library : x264 core 112 r1867 22bfd31
Encoding settings : cabac=1 / ref=12 / deblock=1:-3:-3 / analyse=0x3:0x113 / me=tesa / subme=10 / psy=1 / psy_rd=1.00:0.00 / mixed_ref=1 / me_range=16 / chroma_me=1 / trellis=2 / 8x8dct=1 / cqm=0 / deadzone=21,11 / fast_pskip=0 / chroma_qp_offset=-2 / threads=12 / sliced_threads=0 / nr=0 / decimate=0 / interlaced=0 / constrained_intra=0 / bframes=6 / b_pyramid=2 / b_adapt=2 / b_bias=0 / direct=3 / weightb=1 / open_gop=0 / weightp=2 / keyint=250 / keyint_min=23 / scenecut=40 / intra_refresh=0 / rc=2pass / mbtree=0 / bitrate=6000 / ratetol=1.0 / qcomp=0.60 / qpmin=0 / qpmax=51 / qpstep=4 / cplxblur=20.0 / qblur=0.5 / ip_ratio=1.40 / pb_ratio=1.30 / aq=1:0.90
Language : English

Audio #1
ID : 2
Format : AC-3
Format/Info : Audio Coding 3
Mode extension : CM (complete main)
Muxing mode : Header stripping
Codec ID : A_AC3
Duration : 1h 31mn
Bit rate mode : Constant
Bit rate : 256 Kbps
Channel(s) : 6 channels
Channel positions : Front: L C R, Side: L R, LFE
Sampling rate : 48.0 KHz
Bit depth : 16 bits
Video delay : 15s 600ms
Stream size : 167 MiB (4%)
Title : MVO
Language : Russian

Audio #2
ID : 3
Format : AC-3
Format/Info : Audio Coding 3
Mode extension : CM (complete main)
Muxing mode : Header stripping
Codec ID : A_AC3
Duration : 1h 31mn
Bit rate mode : Constant
Bit rate : 640 Kbps
Channel(s) : 6 channels
Channel positions : Front: L C R, Side: L R, LFE
Sampling rate : 48.0 KHz
Bit depth : 16 bits
Stream size : 418 MiB (9%)
Language : English

Text #1
ID : 4
Format : UTF-8
Codec ID : S_TEXT/UTF8
Codec ID/Info : UTF-8 Plain Text
Language : Russian

Text #2
ID : 5
Format : UTF-8
Codec ID : S_TEXT/UTF8
Codec ID/Info : UTF-8 Plain Text
Language : English
Свернуть
"Скриншоты"

Изображение
Изображение
Изображение
Изображение
Изображение
Свернуть
Раздача группы:
Изображение
Не в сети
Профиль  
Начать новую темуОтветить на тему  [ 1 сообщение ] 
Вы не можете начинать темы
Вы не можете отвечать на сообщения
Вы не можете редактировать свои сообщения
Вы не можете удалять свои сообщения