Правила форума

Здесь находятся раздачи, на которых не было полного источника (сида) более месяца.
Вы можете вернуть релиз в соответствующий раздел, для этого напишите нам в специальной теме и встаньте на раздачу.
Новые релизы, повторяющие релизы в архиве, повторами не считаются.
Начать новую темуОтветить на тему  [ Сообщений: 4 ] 
Сообщения
 Добавлено: 2011-09-14 23:17
Аватара пользователя
Стаж: 6 лет 7 месяцев
Сообщений: 214
Спасибок: 10697
Ловушка
The Resident

Изображение

Год выпуска: 2011
Страна: Великобритания, США / Hammer Film Productions
Слоган: ««Твой дом - его крепость»»

Жанр: ужасы, триллер, драма
Продолжительность: 01:27:20
Перевод: Профессиональное (многоголосое) [лицензия]
Режиссер: Антти Джокинен
В ролях: Джеффри Дин Морган, Хилари Суэнк, Кристофер Ли, Ли Пейс, Майкл Масси, Онжаню Эллис, Кейша Олсен, Пенни Бальфур, Александрия Морроу, Сэнди К Шелби и др.ю

Описание:
Миллионы одиноких женщин снимают квартиры. Они не задумываются о том, кто жил там до них. Они не знают хозяев. Им не приходит в голову сменить замок.Расставшись с мужем, молодая врач Джульет Дермер начинает новую жизнь в просторном съемном лофте. Недорогая квартира оказывается настолько хороша, что Джулия не может поверить своему счастью. Вскоре, однако, она начинает подозревать, что не одна в собственном доме. С ужасом она осознает, что симпатичный домовладелец Макс избрал ее для своей маниакальной игры в кошки-мышки.
Изображение 5.20 (7,023) Изображение 5.123 (931)
Релиз группы: Изображение Раздача: Изображение
Изображение
Формат: DVD Video
Качество: DVD9 R5
Видео: PAL 16:9 (720x576)
Аудио: Russian / English (Dolby AC3, 6 ch)
Субтитры: Russian
Размер: 5.66 GB
Дополнительно: Смотрите на DVD
MediaInfo
General
Complete name : D:\Temp\FullDisc\RESIDENT\VIDEO_TS\VTS_03_3.VOB
Format : MPEG-PS
File size : 1 024 MiB
Duration : 21mn 0s
Overall bit rate : 6 815 Kbps

Video
ID : 224 (0xE0)
Format : MPEG Video
Format version : Version 2
Format profile : Main@Main
Format settings, BVOP : Yes
Format settings, Matrix : Custom
Format settings, GOP : M=3, N=13
Duration : 21mn 0s
Bit rate mode : Variable
Bit rate : 6 167 Kbps
Nominal bit rate : 9 000 Kbps
Width : 720 pixels
Height : 576 pixels
Display aspect ratio : 16:9
Frame rate : 25.000 fps
Standard : PAL
Color space : YUV
Chroma subsampling : 4:2:0
Bit depth : 8 bits
Scan type : Interlaced
Scan order : Top Field First
Compression mode : Lossy
Bits/(Pixel*Frame) : 0.595
Stream size : 926 MiB (90%)

Audio #1
ID : 189 (0xBD)-128 (0x80)
Format : AC-3
Format/Info : Audio Coding 3
Mode extension : CM (complete main)
Muxing mode : DVD-Video
Duration : 21mn 0s
Bit rate mode : Constant
Bit rate : 256 Kbps
Channel(s) : 6 channels
Channel positions : Front: L C R, Side: L R, LFE
Sampling rate : 48.0 KHz
Bit depth : 16 bits
Compression mode : Lossy
Delay relative to video : -504ms
Stream size : 38.5 MiB (4%)

Audio #2
ID : 189 (0xBD)-129 (0x81)
Format : AC-3
Format/Info : Audio Coding 3
Mode extension : CM (complete main)
Muxing mode : DVD-Video
Duration : 21mn 0s
Bit rate mode : Constant
Bit rate : 256 Kbps
Channel(s) : 6 channels
Channel positions : Front: L C R, Side: L R, LFE
Sampling rate : 48.0 KHz
Bit depth : 16 bits
Compression mode : Lossy
Delay relative to video : -504ms
Stream size : 38.5 MiB (4%)

Menu
Свернуть
NFO
Title:
Size: 5.66 Gb ( 5 933 496 KBytes ) - DVD-9
Enabled regions: 1, 2, 3, 4, 5, 6, 7, 8

VTS_01 :
Play Length: 00:00:10
Video: PAL 16:9 (720x576) VBR, Auto Pan&Scan, Auto Letterboxed

VTS_02 :
Play Length: 00:00:06
Video: PAL 16:9 (720x576) VBR, Auto Pan&Scan, Auto Letterboxed

VTS_03 :
Play Length: 01:27:20
Video: PAL 16:9 (720x576) VBR, Auto Pan&Scan, Auto Letterboxed
Audio:
Russian (Dolby AC3, 6 ch)
English (Dolby AC3, 6 ch)
Subtitles:
Not specified
Not specified

VTS_04 :
Play Length: 00:02:29
Video: PAL 16:9 (720x576) VBR, Auto Pan&Scan, Auto Letterboxed
Audio:
Not specified (Dolby AC3, 2 ch)

VTS_05 :
Play Length: 00:02:02
Video: PAL 16:9 (720x576) VBR, Auto Pan&Scan, Auto Letterboxed
Audio:
Not specified (Dolby AC3, 2 ch)

VTS_06 :
Play Length: 00:02:12
Video: PAL 16:9 (720x576) VBR, Auto Pan&Scan, Auto Letterboxed
Audio:
Not specified (Dolby AC3, 2 ch)

VTS_07 :
Play Length: 00:01:58
Video: PAL 16:9 (720x576) VBR, Auto Pan&Scan, Auto Letterboxed
Audio:
Not specified (Dolby AC3, 2 ch)

VTS_08 :
Play Length: 00:02:22
Video: PAL 16:9 (720x576) VBR, Auto Pan&Scan, Auto Letterboxed
Audio:
Not specified (Dolby AC3, 2 ch)

VTS_09 :
Play Length: 00:02:00
Video: PAL 16:9 (720x576) VBR, Auto Pan&Scan, Auto Letterboxed
Audio:
Not specified (Dolby AC3, 2 ch)

VTS_10 :
Play Length: 00:00:20
Video: PAL 16:9 (720x576) VBR, Auto Pan&Scan, Auto Letterboxed
Audio:
Not specified (Dolby AC3, 2 ch)
Not specified (Dolby AC3, 2 ch)
Свернуть
Скриншоты
Изображение
Изображение
Изображение
Изображение
Изображение
Изображение
Изображение
[img]
Свернуть
Не в сети
Профиль  
 Добавлено: 2011-09-17 20:23 (спустя 2 дня 21 час)
Стаж: 7 лет 3 месяца
Сообщений: 25
всем ЗАПАДЛО написать,норм или Г
Не в сети
Профиль  
 Добавлено: 2011-09-24 11:29 (спустя 6 дней)
Аватара пользователя
Стаж: 6 лет 4 месяца
Возраст: 25
Сообщений: 50
Посмотреть можно, лично я не пожалел.
Не в сети
Профиль  
 Добавлено: 2012-03-31 17:55 (спустя 6 месяцев)
Аватара пользователя
Стаж: 8 лет 6 месяцев
Сообщений: 813
Лайков: 22
норм. :hi_hi_hi: :)
Не в сети
Профиль  
Начать новую темуОтветить на тему  [ Сообщений: 4 ] 
Вы не можете начинать темы
Вы не можете отвечать на сообщения
Вы не можете редактировать свои сообщения
Вы не можете удалять свои сообщения