Правила форума

Здесь находятся раздачи, на которых не было полного источника (сида) более месяца.
Вы можете вернуть релиз в соответствующий раздел, для этого напишите нам в специальной теме и встаньте на раздачу.
Новые релизы, повторяющие релизы в архиве, повторами не считаются.
Начать новую темуОтветить на тему  [ Сообщений: 2 ] 
Сообщения
 Добавлено: 2012-02-19 14:12
Книголюб
Аватара пользователя
Стаж: 7 лет 2 месяца
Сообщений: 2823
Спасибок: 48825
Лайков: 73
Любимый учитель
The Perfect Teacher

Изображение


Год выпуска: 2010
Страна: Канада (Capital Productions, Thrill Films)
Слоган: «You can't choose your family but she can.»
Жанр: триллер
Продолжительность: 01:33:26
Перевод: Профессиональный (многоголосый закадровый)[лицензия]
Режиссёр: Джим Донован
В ролях: Меган Парк, Дэвид Чэрвет, Боти Блисс, Кеева Лунк, Аманда Джейн Тилсон, Кимберли-Суе Муррау, Кристина Брокколини, Джеймс Макгоун, Джудит Берибей
Описание: Когда учитель математики и тренер волейбольной команды Джим Уилкис принимает предложение о работе в старших классах элитной школы Филадельфии, он и понятия не имеет, что станет объектом сексуального преследования одной из учениц школы. Семнадцатилетняя красотка, Девон Кори сразу положила на него глаз. Но узнав, что у Джима есть подруга и горячо любимая дочь, она решает, что он будет принадлежать лишь ей одной или не достанется никому…
Мировая премьера: 12 сентября 2010
Премьера в России: 7 февраля 2012, «West Video»
Изображение 7.235 68

Качество: DVD5
Формат: DVD Video
Видео кодек: MPEG2
Аудио кодек: AC3 (Dolby Digital)
Видео: PAL 16:9 (720x576) 25.00fps 9800kbps 0.479Bits/Pixel
Аудио #1: 48000Hz 6ch 384kbps
MediaInfo
General
Complete name : D:\Lybimyi.ychitel.2010.P.DVD\Lybimii.Ychitel\VTS_06_1.VOB
Format : MPEG-PS
File size : 1 024 MiB
Duration : 24mn 27s
Overall bit rate mode : Variable
Overall bit rate : 5 854 Kbps

Video
ID : 224 (0xE0)
Format : MPEG Video
Format version : Version 2
Format profile : Main@Main
Format settings, BVOP : Yes
Format settings, Matrix : Custom
Duration : 24mn 27s
Bit rate mode : Variable
Bit rate : 4 969 Kbps
Maximum bit rate : 9 800 Kbps
Width : 720 pixels
Height : 576 pixels
Display aspect ratio : 16:9
Frame rate : 25.000 fps
Standard : PAL
Color space : YUV
Chroma subsampling : 4:2:0
Bit depth : 8 bits
Scan type : Interlaced
Scan order : Top Field First
Compression mode : Lossy
Bits/(Pixel*Frame) : 0.479
Stream size : 869 MiB (85%)

Audio #1
ID : 189 (0xBD)-128 (0x80)
Format : AC-3
Format/Info : Audio Coding 3
Mode extension : CM (complete main)
Muxing mode : DVD-Video
Duration : 24mn 27s
Bit rate mode : Constant
Bit rate : 384 Kbps
Channel(s) : 6 channels
Channel positions : Front: L C R, Side: L R, LFE
Sampling rate : 48.0 KHz
Bit depth : 16 bits
Compression mode : Lossy
Stream size : 67.2 MiB (7%)

Audio #2
ID : 189 (0xBD)-129 (0x81)
Format : AC-3
Format/Info : Audio Coding 3
Mode extension : CM (complete main)
Muxing mode : DVD-Video
Duration : 24mn 27s
Bit rate mode : Constant
Bit rate : 384 Kbps
Channel(s) : 6 channels
Channel positions : Front: L C R, Side: L R, LFE
Sampling rate : 48.0 KHz
Bit depth : 16 bits
Compression mode : Lossy
Stream size : 67.2 MiB (7%)

Text #1
ID : 189 (0xBD)-32 (0x20)
Format : RLE
Format/Info : Run-length encoding
Muxing mode : DVD-Video

Text #2
ID : 189 (0xBD)-33 (0x21)
Format : RLE
Format/Info : Run-length encoding
Muxing mode : DVD-Video

Menu


Свернуть

Скриншоты
Изображение
Изображение
Изображение
Свернуть
Не в сети
Профиль  
 Добавлено: 2012-02-19 14:22 (спустя 9 минут)
Аватара пользователя
Стаж: 8 лет 3 месяца
Возраст: 43
Сообщений: 3290
Спасибок: 21012
Лайков: 3
coldun
у DVD нужно DVDInfo :par_don: :)
_________________
Изображение
Не в сети
Профиль  
Начать новую темуОтветить на тему  [ Сообщений: 2 ] 
Вы не можете начинать темы
Вы не можете отвечать на сообщения
Вы не можете редактировать свои сообщения
Вы не можете удалять свои сообщения