Правила форума

Здесь находятся раздачи, на которых не было полного источника (сида) более месяца.
Вы можете вернуть релиз в соответствующий раздел, для этого напишите нам в специальной теме и встаньте на раздачу.
Новые релизы, повторяющие релизы в архиве, повторами не считаются.
Начать новую темуОтветить на тему  [ Сообщений: 3 ] 
Сообщения
 Добавлено: 2011-02-18 18:00
Модератор
Аватара пользователя
Стаж: 8 лет 1 месяц
Возраст: 20
Сообщений: 32130
Спасибок: 98571
Лайков: 80
Любовь и другие лекарства / Love and Other Drugs
«Иногда человек, которого ты не замечаешь, становится тем, кто нужен тебе больше всего»

Изображение
Год выпуска: 2010
Страна: Изображение США
Жанр: драма, комедия
Продолжительность: 01:39:32
Перевод: Профессиональный (полное дублирование) [лицензия]

Режиссер: Эдвард Цвик / Edward Zwick
Сценарий: Чарльз Рэндольф / Charles Randolph, Эдвард Цвик / Edward Zwick, Маршалл Херсковиц / Marshall Herskovitz, Джэми Рейди / Jamie Reidy
Продюсер: Питер Жан Брюгге / Pieter Jan Brugge, Алекса Фэйген / Alexa Faigen, Маршалл Херсковиц / Marshall Herskovitz, Трой Путни / Troy Putney, Чарльз Рэндольф / Charles Randolph
Оператор: Стивен Фирберг / Steven Fierberg
Композитор: Джеймс Ньютон Ховард / James Newton Howard

В ролях: Джейк Джилленхол (Jamie Randall), Энн Хэтэуэй (Maggie Murdock), Оливер Плэтт (Bruce Winston), Хэнк Азария (Dr. Stan Knight), Джош Гад (Josh Randall), Гэбриел Махт (Trey Hannigan), Джуди Грир (Cindy), Джордж Сигал (Dr. James Randall), Джилл Клейбёрг (Nancy Randall), Кейт Дженнингс Грант (Gina), Кэтрин Уинник ('Lisa'), Кимберли Скотт (Gail)
Описание: Молодой продавец конкурирует в беспощадном мире фармацевтических препаратов, ему нужно распродать препараты для мужского пола, повышающие кое-какую работу...

Раздача: Изображение

Изображение
Доп. информация
Бюджет: $30 000 000
Сборы в мире: $76 156 967
Сборы в США: $32 056 967
Мировая премьера: 4 ноября 2010
Изображение Релиз на DVD: 24 февраля 2011, «Двадцатый Век Фокс СНГ»
MediaInfo
Общее
UniqueID/String : 249696158989918901756968321929388110178 (0xBBD9BB202D0B4E22A656A75C0FD63162)
Полное имя : E:\Love.And.Other.Drugs.2010.1080p.Bluray.x264.DTS.Rus.Ukr.Eng.mkv
Формат : Matroska
Размер файла : 12,4 Гбайт
Продолжительность : 1 ч. 52 м.
Общий поток : 15,8 Мбит/сек
Название фильма : Love and Other Drugs (2010)
Дата кодирования : UTC 2011-02-18 04:38:50
Программа кодирования : mkvmerge v4.4.0 ('Die Wiederkehr') сборка от Oct 31 2010 21:52:48
Библиотека кодирования : libebml v1.0.0 + libmatroska v1.0.0
Видео
Идентификатор : 1
Формат : AVC
Формат/Информация : Advanced Video Codec
Профиль формата : High@L4.1
Параметр CABAC формата : Да
Параметр ReFrames формата : 4 кадры
Идентификатор кодека : V_MPEG4/ISO/AVC
Продолжительность : 1 ч. 52 м.
Битрейт : 13,1 Мбит/сек
Ширина : 1920 пикс.
Высота : 1040 пикс.
Соотношение сторон : 16:9
Частота кадров : 23,976 кадр/сек
Цветовое пространство : YUV
Подвыборка цветности : 4:2:0
Битовая глубина : 8 бит
Тип развёртки : Прогрессивная
Бит/(Пиксели*Кадры) : 0.275
Размер потока : 10,1 Гбайт (81%)
Заголовок : Love.and.Other.Drugs.2010.BluRay.1080p.x264-CHD
Библиотека кодирования : x264 core 107 r1766 f9f0035
Настройки программы : cabac=1 / ref=4 / deblock=1:-3:-3 / analyse=0x3:0x113 / me=umh / subme=10 / psy=1 / psy_rd=1.05:0.10 / mixed_ref=1 / me_range=48 / chroma_me=1 / trellis=2 / 8x8dct=1 / cqm=2 / deadzone=21,11 / fast_pskip=0 / chroma_qp_offset=-2 / threads=12 / sliced_threads=0 / nr=0 / decimate=1 / interlaced=0 / constrained_intra=0 / bframes=6 / b_pyramid=2 / b_adapt=2 / b_bias=0 / direct=3 / weightb=1 / open_gop=0 / weightp=2 / keyint=250 / keyint_min=23 / scenecut=40 / intra_refresh=0 / rc_lookahead=50 / rc=2pass / mbtree=1 / bitrate=13145 / ratetol=1.0 / qcomp=0.70 / qpmin=10 / qpmax=51 / qpstep=4 / cplxblur=20.0 / qblur=0.5 / vbv_maxrate=40000 / vbv_bufsize=30000 / ip_ratio=1.40 / aq=1:0.90 / nal_hrd=none
Язык : English
Аудио #1
Идентификатор : 2
Формат : DTS
Формат/Информация : Digital Theater Systems
Идентификатор кодека : A_DTS
Продолжительность : 1 ч. 52 м.
Вид битрейта : Постоянный
Битрейт : 755 Кбит/сек
Канал(ы) : 6 канала(ов)
Расположение каналов : Front: L C R, Side: L R, LFE
Частота : 48,0 КГц
Битовая глубина : 24 бит
Метод сжатия : С потерями
Размер потока : 606 Мбайт (5%)
Заголовок : DTS @ 768 kbps
Язык : Russian
Аудио #2
Идентификатор : 3
Формат : AC-3
Формат/Информация : Audio Coding 3
Расширение режима : CM (complete main)
Идентификатор кодека : A_AC3
Продолжительность : 1 ч. 52 м.
Вид битрейта : Постоянный
Битрейт : 384 Кбит/сек
Канал(ы) : 6 канала(ов)
Расположение каналов : Front: L C R, Side: L R, LFE
Частота : 48,0 КГц
Битовая глубина : 16 бит
Метод сжатия : С потерями
Размер потока : 309 Мбайт (2%)
Заголовок : AC3 @ 384 kbps
Язык : Ukrainian
Аудио #3
Идентификатор : 4
Формат : DTS
Формат/Информация : Digital Theater Systems
Идентификатор кодека : A_DTS
Продолжительность : 1 ч. 52 м.
Вид битрейта : Постоянный
Битрейт : 1510 Кбит/сек
Канал(ы) : 6 канала(ов)
Расположение каналов : Front: L C R, Side: L R, LFE
Частота : 48,0 КГц
Битовая глубина : 24 бит
Метод сжатия : С потерями
Размер потока : 1,18 Гбайт (10%)
Заголовок : DTS-CORE 1536K
Язык : English
Текст #1
Идентификатор : 5
Формат : UTF-8
Идентификатор кодека : S_TEXT/UTF8
Идентификатор кодека/Информация : UTF-8 Plain Text
Заголовок : forced
Язык : Russian
Текст #2
Идентификатор : 6
Формат : UTF-8
Идентификатор кодека : S_TEXT/UTF8
Идентификатор кодека/Информация : UTF-8 Plain Text
Заголовок : full
Язык : Russian
Текст #3
Идентификатор : 7
Формат : UTF-8
Идентификатор кодека : S_TEXT/UTF8
Идентификатор кодека/Информация : UTF-8 Plain Text
Язык : English
Свернуть
Свернуть

MPAA: Изображение
Качество: BDRip 1080p R5
Формат видео: MKV
Видео: AVC; 1920x1040 (16:9); 12838 Kbps; 23,976 fps; 0,268 bpp
Аудио №1: Russian; DTS; 754 Kbps; CBR; 6 ch; 24 bit
Аудио №2: Ukrainian; AC3; 384 Kbps; CBR; 6 ch
Аудио №3: English; DTS; 1509 Kbps; CBR; 6 ch; 24 bit
Субтитры: Russian(forced), Russian(full), English

Скриншоты
Изображение

Изображение

Изображение
Свернуть



Последний раз редактировалось Костян236 2011-02-21 15:14, всего редактировалось 1 раз.
Не в сети
Профиль  
 Добавлено: 2011-02-18 18:21 (спустя 21 минута)
Руководитель релиз-группы
Аватара пользователя
Стаж: 7 лет 2 месяца
Возраст: 4
Сообщений: 5213
Спасибок: 19350
Лайков: 2312
Костян236 Помогаю
_________________
Изображение

Изображение
Не в сети
Профиль  
 Добавлено: 2011-02-21 13:55 (спустя 2 дня 19 часов)
Ацкий сотона
Аватара пользователя
Стаж: 8 лет 11 месяцев
Возраст: 28
Сообщений: 819
Спасибок: 12
Лайков: 1
Тяну . Но сепл дал не тот , поправь плиз .
_________________
ИзображениеИзображениеИзображениеИзображениеИзображение
Не в сети
Профиль  
Начать новую темуОтветить на тему  [ Сообщений: 3 ] 
Вы не можете начинать темы
Вы не можете отвечать на сообщения
Вы не можете редактировать свои сообщения
Вы не можете удалять свои сообщения