Правила форума

Здесь находятся раздачи, на которых не было полного источника (сида) более месяца.
Вы можете вернуть релиз в соответствующий раздел, для этого напишите нам в специальной теме и встаньте на раздачу.
Новые релизы, повторяющие релизы в архиве, повторами не считаются.
Начать новую темуОтветить на тему  [ Сообщений: 4 ] 
Сообщения
 Добавлено: 2012-05-27 16:27
Книголюб
Аватара пользователя
Стаж: 7 лет 2 месяца
Сообщений: 2823
Спасибок: 48830
Лайков: 73
Любовь живет три года
L'amour dure trois ans

Изображение


Год выпуска: 2011
Страна: Франция, Бельгия
Слоган: «Любовь в XXI веке - это СМС без ответа»
Жанр: комедия
Продолжительность: 01:34:00
Перевод: Профессиональный (дубляж)[Чистый звук]


Режиссёр: Фредерик Бегбедер
В ролях: Гаспар Пруст, Луиз Бургуан, Джои Старр, Джонатан Ламберт, Фредерик Бель, Николас Бедос, Элиза Седнауи, Бернар Менез, Анни Дюпре, Тома Жуанне
Описание: Главный герой — журналист Марк Марронье, пишущий светскую хронику. Он уверен, что любовь живёт три года: сначала люди страстно любят друг друга, потом нежно и по-дружески, а потом им становится скучно. Причины таких взглядов кроются в том, что сам Марк никогда не любил больше трёх лет…
Мировая премьера: 10 декабря 2011
Премьера в России: 10 мая 2012, «Cinema Prestige»
Изображение 7.167 734

Качество: BDRip 720p.
Формат: MKV
Видео кодек: H264
Аудио кодек: DTS
Видео: 4884 kb/s, 1280x544 24fps 0.292 Bits/Pixel
Аудио #1: Russian: AC3, 192 kb/s (2 ch) [чистый звук]
Аудио #2: French: DTS, 1510 kb/s (6 ch)
MediaInfo
General
Unique ID : 188719998607874130749861990790716722892 (0x8DFA264EF63BDA8094ADE5E7AF280ECC)
Complete name : K:\Ljubov.jiviot.tri.goda..mkv
Format : Matroska
Format version : Version 2
File size : 4.49 GiB
Duration : 1h 37mn
Overall bit rate : 6 577 Kbps
Encoded date : UTC 2012-05-25 11:29:58
Writing application : mkvmerge v5.3.0 ('I could have danced') built on Mar 4 2012 19:18:32
Writing library : libebml v1.2.3 + libmatroska v1.3.0

Video
ID : 1
Format : AVC
Format/Info : Advanced Video Codec
Format profile : High@L4.1
Format settings, CABAC : Yes
Format settings, ReFrames : 5 frames
Muxing mode : Header stripping
Codec ID : V_MPEG4/ISO/AVC
Duration : 1h 37mn
Bit rate : 4 884 Kbps
Width : 1 280 pixels
Height : 544 pixels
Display aspect ratio : 2.35:1
Frame rate : 24.000 fps
Color space : YUV
Chroma subsampling : 4:2:0
Bit depth : 8 bits
Scan type : Progressive
Bits/(Pixel*Frame) : 0.292
Stream size : 3.24 GiB (72%)
Writing library : x264 core 122 r2184 5c85e0a
Encoding settings : cabac=1 / ref=5 / deblock=1:0:0 / analyse=0x3:0x113 / me=umh / subme=8 / psy=1 / psy_rd=1.00:0.00 / mixed_ref=1 / me_range=16 / chroma_me=1 / trellis=1 / 8x8dct=1 / cqm=0 / deadzone=21,11 / fast_pskip=1 / chroma_qp_offset=-2 / threads=12 / sliced_threads=0 / nr=0 / decimate=1 / interlaced=0 / bluray_compat=0 / constrained_intra=0 / bframes=3 / b_pyramid=2 / b_adapt=2 / b_bias=0 / direct=3 / weightb=1 / open_gop=0 / weightp=2 / keyint=240 / keyint_min=24 / scenecut=40 / intra_refresh=0 / rc_lookahead=50 / rc=2pass / mbtree=1 / bitrate=4884 / ratetol=1.0 / qcomp=0.60 / qpmin=0 / qpmax=69 / qpstep=4 / cplxblur=20.0 / qblur=0.5 / ip_ratio=1.40 / aq=1:1.00
Language : English
Default : Yes
Forced : No

Audio #1
ID : 2
Format : AC-3
Format/Info : Audio Coding 3
Mode extension : CM (complete main)
Muxing mode : Header stripping
Codec ID : A_AC3
Duration : 1h 37mn
Bit rate mode : Constant
Bit rate : 192 Kbps
Channel(s) : 2 channels
Channel positions : Front: L R
Sampling rate : 48.0 KHz
Bit depth : 16 bits
Compression mode : Lossy
Stream size : 134 MiB (3%)
Title : Russia AC3 192Kbps
Language : Russian
Default : Yes
Forced : No

Audio #2
ID : 3
Format : DTS
Format/Info : Digital Theater Systems
Muxing mode : Header stripping
Codec ID : A_DTS
Duration : 1h 37mn
Bit rate mode : Constant
Bit rate : 1 510 Kbps
Channel(s) : 6 channels
Channel positions : Front: L C R, Side: L R, LFE
Sampling rate : 48.0 KHz
Bit depth : 24 bits
Compression mode : Lossy
Stream size : 1.03 GiB (23%)
Title : French DTS 1510Kbps
Language : French
Default : No
Forced : No

Menu
00:00:00.000 : en:00:00:00.000
00:08:41.042 : en:00:08:41.042
00:13:49.250 : en:00:13:49.250
00:23:09.583 : en:00:23:09.583
00:31:55.333 : en:00:31:55.333
00:38:04.500 : en:00:38:04.500
00:45:10.000 : en:00:45:10.000
00:55:42.042 : en:00:55:42.042
01:06:05.708 : en:01:06:05.708
01:14:32.625 : en:01:14:32.625
01:25:11.417 : en:01:25:11.417
01:30:14.458 : en:01:30:14.458


Свернуть

Скриншоты
Изображение
Изображение
Изображение
Изображение
Свернуть


Последний раз редактировалось coldun 2012-05-27 21:10, всего редактировалось 2 раз(а).
Не в сети
Профиль  
 Добавлено: 2012-05-27 16:46 (спустя 19 минут)
Аватара пользователя
Стаж: 5 лет 6 месяцев
Возраст: 23
Сообщений: 484
Спасибок: 1403
Лайков: 1
вот это скрины :-D
Не в сети
Профиль  
 Добавлено: 2012-05-27 17:23 (спустя 37 минут)
Аватара пользователя
Стаж: 7 лет 1 месяц
Возраст: 26
Сообщений: 40
Лайков: 1
~Mr.Fre(s)H~ и не говорите!))))
Не в сети
Профиль  
 Добавлено: 2012-07-04 10:10 (спустя 1 месяц 7 дней)
Модератор
Аватара пользователя
Стаж: 8 лет
Возраст: 106
Сообщений: 1256
Спасибок: 2108
viewtopic.php?f=1743&t=472979
_________________
Одни отстаивают свои права — другие отсиживают...
Не можешь найти любимый фильм в DVD5,9; HDDVD; BLU-RAY; Blu-ray>DVD5?Попроси об этом нас DVD Release Group
Изображение
Не в сети
Профиль  
Начать новую темуОтветить на тему  [ Сообщений: 4 ] 
Вы не можете начинать темы
Вы не можете отвечать на сообщения
Вы не можете редактировать свои сообщения
Вы не можете удалять свои сообщения