Правила форума

Здесь находятся раздачи, на которых не было полного источника (сида) более месяца.
Вы можете вернуть релиз в соответствующий раздел, для этого напишите нам в специальной теме и встаньте на раздачу.
Новые релизы, повторяющие релизы в архиве, повторами не считаются.
Начать новую темуОтветить на тему  [ Сообщений: 3 ] 
Сообщения
 Добавлено: 2013-08-13 15:49
Аватара пользователя
Стаж: 7 лет 2 месяца
Сообщений: 7167
Спасибок: 81990
Лайков: 2438
Лучшее предложение / La migliore offerta

Изображение


Год выпуска: 2012
Страна: Италия
Жанр: триллер, мелодрама, драма
Продолжительность: 02:10:58
Перевод: Профессиональный (дубляж) + Оригинальная звуковая дорожка

Режиссёр: Джузеппе Торнаторе
В ролях: Джим Стёрджесс, Дональд Сазерленд, Джеффри Раш, Сильвия Хукс, Филип Джексон, Лия Кебеде, Дермот Краули, Кируна Стамелл, Майлз Ричардсон, Линн Суонсон
Описание: Вергилий Олдман — управляющий директор ведущего аукционного дома. Время от времени со своим партнёром Билли на глазах у всего мира он проворачивает хитроумные аферы, ловко манипулируя и вводя в заблуждение как продавцов, так и покупателей. В секретном зале своей виллы он собрал сотни бесценных картин из разных эпох.

Однажды таинственная женщина, скрывающая свою личность, просит его продать антиквариат её семьи. Среди многочисленных произведений искусства раз за разом Олдман обнаруживает частицы давно утерянного механизма. В своё время поговаривали, что для того чтобы его оживить, создатели прибегали к помощи высших сил… Складывая, как пазл, найденные детали, вместе со своим гениальным другом Робертом они пытаются разгадать этот секрет. Но Олдман заинтересован не только предметами старины…


Качество: BDRip 720p
Формат: MKV
Видео кодек: H264 (AVC)
Аудио кодек: AC3 (Dolby Digital)
Видео: 1 280x538, 23.976 fps, 4 000 Kbps
Аудио #1: 48.0 KHz, 2 ch, 192 Kbps [Профессиональный (дубляж)] Чистый звук
Аудио #2: 48.0 KHz, 6 ch, 640 Kbps [Оригинальная звуковая дорожка]
Изображение
Скриншоты
Изображение

Изображение

Изображение

Изображение

Изображение

Изображение
Свернуть
Знаете ли Вы, что...
В фильме показаны несколько произведений искусства. Картина, которую восстанавливают, — это «Портрет молодой девушки» (ок. 1470) Петруса Кристуса. Среди изучаемых Олдманом работ есть «Рождение Венеры» (1879) Уильяма-Адольфа Бугро. Среди женских портретов в его коллекции есть «Портрет молодой женщины (La Fornarina)» (ок. 1519) и «Портрет молодой женщины (La Muta)» (1507) Рафаэля, «La Bella» (Красавица) (1536) Тициана, «Портрет Элеоноры Толедской» (1560) и «Портрет Лукреции Панчатики» (1541) Аньоло Бронзино, «Портрет Катерины Сфорца» (ок. 1490) Лоренцо ди Креди, «Цыганка» Бокаччо Бокаччино, «Портрет девушки с книгой стихов Петрарки» (ок. 1528) Андреа дель Сарто, «Портрет Бьянки Капелло» (ок. 1572) Алессандро Аллори, «Портрет Элисбет Тухер» (1499) Альбрехта Дюрера, и «Жанна Самари в декольте (La Reverie)» (1877) Пьера Огюста Ренуара. Есть также работы Лукаса Кранаха ст., Питера Пауля Рубенса, Франсиско Гойи, Элизабет Виже-Лебрен, Данте Габриэль Россетти, Амедео Модильяни, Моргана Уэйстлинга и многих других.

Торнаторе снял альтернативную концовку к фильму. Место действия — ресторан в Риме. То же самое место используется в предшествующих сценах, но заключительная сцена, снятая на той же съемочной площадке в Риме, была вырезана и заменена более сложной сценой, также слегка изменили диалог, снятый в различных местах по миру.
Свернуть
MI
General
Unique ID : 173332419969366033699458543991815152351 (0x82669C1B89F6D79A9E0BADD598B422DF)
Complete name : Лучшее предложение.2013.mkv
Format : Matroska
Format version : Version 4 / Version 2
File size : 4.42 GiB
Duration : 2h 10mn
Overall bit rate : 4 834 Kbps
Encoded date : UTC 2013-08-13 06:56:18
Writing application : mkvmerge v6.1.0 ('Old Devil') built on Mar 4 2013 09:10:42
Writing library : libebml v1.3.0 + libmatroska v1.4.0

Video
ID : 1
Format : AVC
Format/Info : Advanced Video Codec
Format profile : High@L4.1
Format settings, CABAC : Yes
Format settings, ReFrames : 12 frames
Codec ID : V_MPEG4/ISO/AVC
Duration : 2h 10mn
Bit rate : 4 000 Kbps
Width : 1 280 pixels
Height : 538 pixels
Display aspect ratio : 2.40:1
Frame rate : 24.000 fps
Color space : YUV
Chroma subsampling : 4:2:0
Bit depth : 8 bits
Scan type : Progressive
Bits/(Pixel*Frame) : 0.242
Stream size : 3.57 GiB (81%)
Writing library : x264 core 133 r2334kMod a3ac64b
Encoding settings : cabac=1 / ref=12 / deblock=1:-3:-3 / analyse=0x3:0x133 / me=umh / subme=11 / psy=1 / fade_compensate=0.00 / psy_rd=1.10:0.10 / mixed_ref=1 / me_range=64 / chroma_me=1 / trellis=2 / 8x8dct=1 / cqm=0 / deadzone=21,11 / fast_pskip=0 / chroma_qp_offset=-3 / threads=12 / lookahead_threads=2 / sliced_threads=0 / nr=0 / decimate=0 / interlaced=0 / bluray_compat=0 / constrained_intra=0 / bframes=9 / b_pyramid=2 / b_adapt=2 / b_bias=0 / direct=3 / weightb=1 / open_gop=0 / weightp=2 / keyint=250 / keyint_min=24 / scenecut=40 / intra_refresh=0 / rc_lookahead=40 / rc=2pass / mbtree=0 / bitrate=4000 / ratetol=1.0 / qcomp=0.80 / qpmin=0 / qpmax=69 / qpstep=4 / cplxblur=20.0 / qblur=0.5 / vbv_maxrate=50000 / vbv_bufsize=62500 / nal_hrd=none / ip_ratio=1.30 / pb_ratio=1.20 / aq=1:0.70
Language : English
Default : Yes
Forced : No
Color primaries : BT.709-5, BT.1361, IEC 61966-2-4, SMPTE RP177
Transfer characteristics : BT.709-5, BT.1361
Matrix coefficients : BT.709-5, BT.1361, IEC 61966-2-4 709, SMPTE RP177

Audio #1
ID : 2
Format : AC-3
Format/Info : Audio Coding 3
Mode extension : CM (complete main)
Format settings, Endianness : Big
Codec ID : A_AC3
Duration : 2h 10mn
Bit rate mode : Constant
Bit rate : 192 Kbps
Channel(s) : 2 channels
Channel positions : Front: L R
Sampling rate : 48.0 KHz
Bit depth : 16 bits
Compression mode : Lossy
Stream size : 180 MiB (4%)
Language : Russian
Default : Yes
Forced : No

Audio #2
ID : 3
Format : AC-3
Format/Info : Audio Coding 3
Mode extension : CM (complete main)
Format settings, Endianness : Big
Codec ID : A_AC3
Duration : 2h 10mn
Bit rate mode : Constant
Bit rate : 640 Kbps
Channel(s) : 6 channels
Channel positions : Front: L C R, Side: L R, LFE
Sampling rate : 48.0 KHz
Bit depth : 16 bits
Compression mode : Lossy
Stream size : 600 MiB (13%)
Language : English
Default : No
Forced : No

Menu
00:00:00.000 : en:00:00:00.000
00:08:59.875 : en:00:08:59.875
00:16:33.542 : en:00:16:33.542
00:32:53.167 : en:00:32:53.167
00:48:00.500 : en:00:48:00.500
00:53:51.500 : en:00:53:51.500
01:01:55.000 : en:01:01:55.000
01:11:45.833 : en:01:11:45.833
01:24:45.333 : en:01:24:45.333
01:34:51.708 : en:01:34:51.708
01:40:27.000 : en:01:40:27.000
01:57:58.667 : en:01:57:58.667
Свернуть
 MiSkam, zima-letoru и rotametr нравится это.
Не в сети
Профиль  
 Добавлено: 2013-08-14 17:25 (спустя 1 день 1 час)
Аватара пользователя
Стаж: 7 лет 2 месяца
Возраст: 54
Сообщений: 20
отличный фильм!!!спасибо раздающему!
Не в сети
Профиль  
 Добавлено: 2013-08-29 09:58 (спустя 14 дней)
Стаж: 3 года 9 месяцев
Сообщений: 17
10 из 10!
Не в сети
Профиль  
Начать новую темуОтветить на тему  [ Сообщений: 3 ] 
Вы не можете начинать темы
Вы не можете отвечать на сообщения
Вы не можете редактировать свои сообщения
Вы не можете удалять свои сообщения