Правила форума

Здесь находятся раздачи, на которых не было полного источника (сида) более месяца.
Вы можете вернуть релиз в соответствующий раздел, для этого напишите нам в специальной теме и встаньте на раздачу.
Новые релизы, повторяющие релизы в архиве, повторами не считаются.
Начать новую темуОтветить на тему  [ Сообщений: 2 ] 
Сообщения
 Добавлено: 2014-09-05 07:56
DVD Release Group
Аватара пользователя
Стаж: 7 лет 1 месяц
Сообщений: 3546
Спасибок: 246990
Лайков: 1018
Люди Икс: Дни минувшего будущего

X-Men: Days of Future Past


Изображение


Год выпуска: 2014
Страна: США, Великобритания
Жанр: Фантастика, фэнтези, боевик, приключения
Продолжительность: 02:11:36
Перевод: Профессиональный (полное дублирование) Чистый звук
Субтитры: Нет
Режиссер: Брайан Сингер
В ролях: Майкл Фассбендер, Джеймс МакЭвой, Хью Джекман, Дженнифер Лоуренс, Иэн МакКеллен, Патрик Стюарт, Николас Холт, Эллен Пейдж, Холли Берри, Питер Динклэйдж
Описание: В будущем — лагерь для интернированных, где живут мутанты, лишившиеся свободы. В настоящем — непрекращающееся противостояние с Братством злых мутантов во главе с Магнето. В прошлом — возможность предотвратить господство Стражей, а значит, грядущую для мутантов изоляцию. Благодаря своим способностям путешествовать во времени, Китти Прайд, живущая в будущем, предупреждает нынешних мутантов о том, что их ждет. Но этого недостаточно, ведь из грядущего в настоящее явились и силы зла.
Изображение
Sample:
http://multi-up.com/996860
Качество: WEB-DL 1080p
Формат: MKV
Видео кодек: H.264
Аудио кодек: AC3
Видео: 1916x796 23.98fps 3790kbps
Аудио:
Аудио Rus: 48kHz 2ch 192kbps
Аудио Eng: 48kHz 6ch 384kbps
"MediaInfo"
Формат : Matroska
Версия формата : Version 4 / Version 2
Размер файла : 4,09 Гбайт
Продолжительность : 2 ч. 11 м.
Общий поток : 4455 Кбит/сек
Дата кодирования : UTC 2014-09-04 23:55:53
Программа кодирования : mkvmerge v6.9.1 ('Blue Panther') 64bit built on Apr 18 2014 18:23:38
Библиотека кодирования : libebml v1.3.0 + libmatroska v1.4.1

Видео
Идентификатор : 1
Формат : AVC
Формат/Информация : Advanced Video Codec
Профиль формата : High@L4.0
Параметр CABAC формата : Да
Параметр ReFrames формата : 5 кадров
Идентификатор кодека : V_MPEG4/ISO/AVC
Продолжительность : 2 ч. 11 м.
Битрейт : 3790 Кбит/сек
Ширина : 1916 пикселей
Высота : 796 пикселей
Соотношение сторон : 2,40:1
Режим частоты кадров : Постоянный
Частота кадров : 23,976 кадра/сек
Цветовое пространство : YUV
Субдискретизация насыщенности : 4:2:0
Битовая глубина : 8 бит
Тип развёртки : Прогрессивная
Бит/(Пиксели*Кадры) : 0.104
Размер потока : 3,48 Гбайт (85%)
Язык : English
Default : Нет
Forced : Нет
Основные цвета : BT.709
Характеристики трансфера : BT.709
Коэффициенты матрицы : BT.709

Аудио #1
Идентификатор : 2
Формат : AC-3
Формат/Информация : Audio Coding 3
Расширение режима : CM (complete main)
Параметр Endianness формата : Big
Идентификатор кодека : A_AC3
Продолжительность : 2 ч. 11 м.
Вид битрейта : Постоянный
Битрейт : 192 Кбит/сек
Каналы : 2 канала
Расположение каналов : Front: L R
Частота : 48,0 КГц
Битовая глубина : 16 бит
Метод сжатия : С потерями
Размер потока : 181 Мбайт (4%)
Язык : Russian
Default : Да
Forced : Нет

Аудио #2
Идентификатор : 3
Формат : AC-3
Формат/Информация : Audio Coding 3
Расширение режима : CM (complete main)
Параметр Endianness формата : Big
Идентификатор кодека : A_AC3
Продолжительность : 2 ч. 11 м.
Вид битрейта : Постоянный
Битрейт : 384 Кбит/сек
Каналы : 6 каналов
Расположение каналов : Front: L C R, Side: L R, LFE
Частота : 48,0 КГц
Битовая глубина : 16 бит
Метод сжатия : С потерями
Размер потока : 361 Мбайт (9%)
Язык : English
Default : Нет
Forced : Нет

Меню
00:00:00.000 : en:Chapter 01
00:03:33.000 : en:Chapter 02
00:08:00.000 : en:Chapter 03
00:10:28.000 : en:Chapter 04
00:13:57.000 : en:Chapter 05
00:17:01.000 : en:Chapter 06
00:20:14.000 : en:Chapter 07
00:22:10.000 : en:Chapter 08
00:26:36.000 : en:Chapter 09
00:30:30.000 : en:Chapter 10
00:34:27.000 : en:Chapter 11
00:35:58.000 : en:Chapter 12
00:38:15.000 : en:Chapter 13
00:40:34.000 : en:Chapter 14
00:45:51.000 : en:Chapter 15
00:48:50.000 : en:Chapter 16
00:51:55.000 : en:Chapter 17
00:54:39.000 : en:Chapter 18
00:57:47.000 : en:Chapter 19
01:00:44.000 : en:Chapter 20
01:03:22.000 : en:Chapter 21
01:07:05.000 : en:Chapter 22
01:09:39.000 : en:Chapter 23
01:13:07.000 : en:Chapter 24
01:15:27.000 : en:Chapter 25
01:17:23.000 : en:Chapter 26
01:19:25.000 : en:Chapter 27
01:24:45.000 : en:Chapter 28
01:26:53.000 : en:Chapter 29
01:30:58.000 : en:Chapter 30
01:33:58.000 : en:Chapter 31
01:37:27.000 : en:Chapter 32
01:41:48.000 : en:Chapter 33
01:44:46.000 : en:Chapter 34
01:47:13.000 : en:Chapter 35
01:51:23.000 : en:Chapter 36
01:56:35.000 : en:Chapter 37
02:00:05.000 : en:Chapter 38
02:02:27.000 : en:Chapter 39
02:10:24.000 : en:Chapter 40
Свернуть

"Скриншоты"
Изображение
Изображение
Изображение
Изображение
Изображение
Изображение
Свернуть
Не в сети
Профиль  
 Добавлено: 2014-09-26 11:47 (спустя 21 день)
Стаж: 7 лет 6 месяцев
Сообщений: 4
А когда будет ХОРОШИЙ звук????????????????
Не в сети
Профиль  
Начать новую темуОтветить на тему  [ Сообщений: 2 ] 
Вы не можете начинать темы
Вы не можете отвечать на сообщения
Вы не можете редактировать свои сообщения
Вы не можете удалять свои сообщения