Правила форума

Здесь находятся раздачи, на которых не было полного источника (сида) более месяца.
Вы можете вернуть релиз в соответствующий раздел, для этого напишите нам в специальной теме и встаньте на раздачу.
Новые релизы, повторяющие релизы в архиве, повторами не считаются.
Начать новую темуОтветить на тему  [ Сообщений: 5 ] 
Сообщения
 Добавлено: 2014-11-06 02:19
DVD Release Group
Аватара пользователя
Стаж: 7 лет 1 месяц
Сообщений: 3565
Спасибок: 247519
Лайков: 1020
Люси

Lucy


Изображение


Год выпуска: 2014
Страна: Франция
Жанр: Боевик, фантастика
Продолжительность: 01:29:20
Перевод: Профессиональный (полное дублирование)
Режиссер: Люк Бессон
В ролях: Скарлетт Йоханссон, Морган Фримен, Аналей Типтон, Мин Сик Чхве, Амр Вакид, Мэйсон Ли, Йохан Филип Асбек, Фредерик Чау, Клер Трэн, Жан Оливер Шредер
Описание: Еще вчера она была просто сексапильной блондинкой, а сегодня – самое опасное и смертоносное создание на планете со сверхъестественными способностями и интеллектом. То, что совсем недавно лучшие умы мира считали фантастической теорией, для нее стало реальностью. И теперь из добычи она превратится в охотницу.
Изображение
Sample:
http://multi-up.com/1011324
Качество: WEB-DL 1080p
Формат: MKV
Видео кодек: H.264
Аудио кодек: AC3
Видео: 1916x800 23.98fps 3835kbps
Аудио: 48kHz 6ch 384kbps
"MediaInfo"
Формат : Matroska
Версия формата : Version 4 / Version 2
Размер файла : 2,69 Гбайт
Продолжительность : 1 ч. 29 м.
Общий поток : 4305 Кбит/сек
Дата кодирования : UTC 2014-11-05 19:34:48
Программа кодирования : mkvmerge v6.9.1 ('Blue Panther') 64bit built on Apr 18 2014 18:23:38
Библиотека кодирования : libebml v1.3.0 + libmatroska v1.4.1

Видео
Идентификатор : 1
Формат : AVC
Формат/Информация : Advanced Video Codec
Профиль формата : High@L4.0
Параметр CABAC формата : Да
Параметр ReFrames формата : 5 кадров
Идентификатор кодека : V_MPEG4/ISO/AVC
Продолжительность : 1 ч. 29 м.
Битрейт : 3835 Кбит/сек
Ширина : 1916 пикселей
Высота : 800 пикселей
Соотношение сторон : 2,40:1
Режим частоты кадров : Постоянный
Частота кадров : 23,976 кадра/сек
Цветовое пространство : YUV
Субдискретизация насыщенности : 4:2:0
Битовая глубина : 8 бит
Тип развёртки : Прогрессивная
Бит/(Пиксели*Кадры) : 0.104
Размер потока : 2,39 Гбайт (89%)
Язык : English
Default : Да
Forced : Нет
Основные цвета : BT.709
Характеристики трансфера : BT.709
Коэффициенты матрицы : BT.709

Аудио
Идентификатор : 2
Формат : AC-3
Формат/Информация : Audio Coding 3
Расширение режима : CM (complete main)
Параметр Endianness формата : Big
Идентификатор кодека : A_AC3
Продолжительность : 1 ч. 29 м.
Вид битрейта : Постоянный
Битрейт : 384 Кбит/сек
Каналы : 6 каналов
Расположение каналов : Front: L C R, Side: L R, LFE
Частота : 48,0 КГц
Битовая глубина : 16 бит
Метод сжатия : С потерями
Размер потока : 245 Мбайт (9%)
Язык : Russian
Default : Да
Forced : Нет

Меню
00:00:00.000 : en:глава 1
00:05:28.000 : en:глава 2
00:08:40.000 : en:глава 3
00:15:47.000 : en:глава 4
00:21:37.000 : en:глава 5
00:26:07.000 : en:глава 6
00:30:29.000 : en:глава 7
00:37:38.000 : en:глава 8
00:41:41.000 : en:глава 9
00:47:34.000 : en:глава 10
00:50:12.000 : en:глава 11
00:55:34.000 : en:глава 12
00:59:37.000 : en:глава 13
01:02:07.000 : en:глава 14
01:04:53.000 : en:глава 15
01:07:15.000 : en:глава 16
01:10:04.000 : en:глава 17
01:12:30.000 : en:глава 18
01:18:52.000 : en:глава 19
01:22:31.000 : en:глава 20
Свернуть

"Скриншоты"
Изображение
Изображение
Изображение
Свернуть
Не в сети
Профиль  
 Добавлено: 2014-11-06 18:44 (спустя 16 часов)
Стаж: 9 лет
Сообщений: 312
Спасибок: 347
Лайков: 9
А в 1080р зачем надо было битрейт видео понижать? :-D
Не в сети
Профиль  
 Добавлено: 2014-11-06 20:27 (спустя 1 час 42 минуты)
DVD Release Group
Аватара пользователя
Стаж: 7 лет 1 месяц
Сообщений: 3565
Спасибок: 247519
Лайков: 1020
Blaster
Что значит понижать?
Не в сети
Профиль  
 Добавлено: 2014-11-06 22:31 (спустя 2 часа 4 минуты)
Аватара пользователя
Стаж: 7 лет 3 месяца
Возраст: 34
Сообщений: 491
Спасибок: 812
Лайков: 44
Нет, это не тот Люк((
Не в сети
Профиль  
 Добавлено: 2014-11-06 23:58 (спустя 1 час 27 минут)
Стаж: 9 лет
Сообщений: 312
Спасибок: 347
Лайков: 9

rastor:

Blaster
Что значит понижать?

в WEB-DL 720p - 4134kbps
в WEB-DL 1080p - 3835kbps

в итоге WEB-DL 1080p весит даже меньше, чем WEB-DL 720p :-D
Не в сети
Профиль  
Начать новую темуОтветить на тему  [ Сообщений: 5 ] 
Вы не можете начинать темы
Вы не можете отвечать на сообщения
Вы не можете редактировать свои сообщения
Вы не можете удалять свои сообщения