Правила форума

Здесь находятся раздачи, на которых не было полного источника (сида) более месяца.
Вы можете вернуть релиз в соответствующий раздел, для этого напишите нам в специальной теме и встаньте на раздачу.
Новые релизы, повторяющие релизы в архиве, повторами не считаются.
Начать новую темуОтветить на тему  [ Сообщений: 2 ] 
Сообщения
 Добавлено: 2011-02-13 15:15
Инквизитор
Аватара пользователя
Стаж: 8 лет 9 месяцев
Сообщений: 3753
Спасибок: 28361
Лайков: 9
Изображение

Мальчик в полосатой пижаме / The Boy in the Striped Pyjamas


Год выпуска: 2008
Страна: США, Великобритания
Слоган: «A timeless story of innocence lost and humanity found.»
Жанр: триллер, драма, военный
Продолжительность: 01:30:35
Перевод: Профессиональный (полное дублирование)
Режиссер: Марк Херман
Сценарий: Джон Бойн, Марк Херман
Продюсер: Рози Элисон, Марк Херман, Дэвид Хейман, Петер Мискольци, Мэри Ричардс
Оператор: Бенуа Деломм
Композитор: Джеймс Хорнер
В ролях: Аса Баттерфилд (Bruno), Вера Фармига (Mother), Дэвид Тьюлис (Father), Джек Скэнлон (Shmuel), Шила Хэнкок (Grandma), Ричард Джонсон (Grandpa), Руперт Френд (Lieutenant Kotler), Эмбер Битти (Gretel), Лазло Арон (Lars), Домонкос Немит (Martin), Кара Хорган (Maria), Зак Маттун О’Брайэн (Leon)
Описание: История, происходящая во время Второй мировой войны и показанная сквозь глаза невинного и ничего не подозревающего о происходящих событиях Бруно, восьмилетнего сына коменданта концентрационного лагеря. Его случайное знакомство и дружба с еврейским мальчиком по другую сторону ограды лагеря, в конечном счете, приводит к самым непредсказуемым и ошеломительным последствиям.
Изображение
Бюджет: $12 500 000
Сборы в США: $9 046 156
Сборы в мире: $40 037 351
Мировая премьера: 28 августа 2008
Релиз на DVD: 30 апреля 2009, «Уолт Дисней Компани СНГ»
Изображение
MPAA:
Релиз, раздача группы: Изображение, Изображение
Качество: HDTVRip 720р
Формат: Matroska
Видео: 1280x720 at 25.000 fps, x264, ~6180 Kbps avg
Аудио#1:
Russian: 48 kHz, AC3, 3/2 (L,C,R,l,r) + LFE ch, ~384.00 kbps avg |Дубляж|
Аудио#2: English: 48 kHz, AC3, 3/2 (L,C,R,l,r) + LFE ch, ~384.00 kbps avg
Субтитры: Russian, Ukrainian, English

M.I.

Общее
Уникальный идентификатор         : 174112640424552658624449222391493675442 (0x82FCDFF22BF6844597E8F2043121C9B2)
Полное имя                       : F:\Фильмы\The.Boy.in.the.Striped.Pyjamas.720p.Rus.Eng.HDCLUB.mkv
Формат                           : Matroska
Размер файла                     : 4,37 Гбайт
Продолжительность                : 1 ч. 30 м.
Общий поток                      : 6948 Кбит/сек
Название фильма                  : The Boy in the Striped Pyjamas (2008) - Release for HDClub
Дата кодирования                 : UTC 2009-11-26 06:35:21
Программа кодирования            : mkvmerge v2.9.8 ('C'est le bon') built on Aug 13 2009 12:49:06
Библиотека кодирования           : libebml v0.7.7 + libmatroska v0.8.1

Видео
Идентификатор                    : 1
Формат                           : AVC
Формат/Информация                : Advanced Video Codec
Профиль формата                  : High@L4.1
Параметр CABAC формата           : Да
Параметр ReFrames формата        : 4 кадры
Идентификатор кодека             : V_MPEG4/ISO/AVC
Продолжительность                : 1 ч. 30 м.
Битрейт                          : 6180 Кбит/сек
Ширина                           : 1280 пикс.
Высота                           : 720 пикс.
Соотношение сторон               : 16:9
Частота кадров                   : 25,000 кадр/сек
Цветовое пространство            : YUV
Подвыборка цветности             : 4:2:0
Битовая глубина                  : 8 бит
Тип развёртки                    : Прогрессивная
Бит/(Пиксели*Кадры)              : 0.268
Размер потока                    : 3,80 Гбайт (87%)
Заголовок                        : Release for HDClub
Библиотека кодирования           : x264 core 64 r987M e71168d
Настройки программы              : cabac=1 / ref=4 / deblock=1:-2:-1 / analyse=0x3:0x133 / me=umh / subme=7 / psy_rd=1.0:0.0 / brdo=1 / mixed_ref=1 / me_range=16 / chroma_me=1 / trellis=2 / 8x8dct=1 / cqm=0 / deadzone=21,11 / chroma_qp_offset=-2 / threads=3 / nr=0 / decimate=1 / mbaff=0 / bframes=3 / b_pyramid=1 / b_adapt=1 / b_bias=0 / direct=1 / wpredb=1 / bime=1 / keyint=240 / keyint_min=10 / scenecut=40(pre) / rc=2pass / bitrate=6180 / ratetol=1.0 / qcomp=0.60 / qpmin=10 / qpmax=40 / qpstep=4 / cplxblur=20.0 / qblur=0.5 / ip_ratio=1.40 / pb_ratio=1.30 / aq=1:1.00
Язык                             : English

Аудио #1
Идентификатор                    : 2
Формат                           : AC-3
Формат/Информация                : Audio Coding 3
Расширение режима                : CM (complete main)
Идентификатор кодека             : A_AC3
Продолжительность                : 1 ч. 30 м.
Вид битрейта                     : Постоянный
Битрейт                          : 384 Кбит/сек
Канал(ы)                         : 6 канала(ов)
Расположение каналов             : Front: L C R, Side: L R, LFE
Частота                          : 48,0 КГц
Битовая глубина                  : 16 бит
Метод сжатия                     : С потерями
Размер потока                    : 247 Мбайт (6%)
Заголовок                        : AC3 5.1 384 Kbps Дубляж
Язык                             : Russian

Аудио #2
Идентификатор                    : 3
Формат                           : AC-3
Формат/Информация                : Audio Coding 3
Расширение режима                : CM (complete main)
Идентификатор кодека             : A_AC3
Продолжительность                : 1 ч. 30 м.
Вид битрейта                     : Постоянный
Битрейт                          : 384 Кбит/сек
Канал(ы)                         : 6 канала(ов)
Расположение каналов             : Front: L C R, Side: L R, LFE
Частота                          : 48,0 КГц
Битовая глубина                  : 16 бит
Метод сжатия                     : С потерями
Задержка видео                   : 28 мс.
Размер потока                    : 247 Мбайт (6%)
Заголовок                        : AC3 5.1 384 Kbps
Язык                             : English

Текст #1
Идентификатор                    : 4
Формат                           : UTF-8
Идентификатор кодека             : S_TEXT/UTF8
Идентификатор кодека/Информация  : UTF-8 Plain Text
Язык                             : Russian

Текст #2
Идентификатор                    : 5
Формат                           : UTF-8
Идентификатор кодека             : S_TEXT/UTF8
Идентификатор кодека/Информация  : UTF-8 Plain Text
Язык                             : Ukrainian

Текст #3
Идентификатор                    : 6
Формат                           : UTF-8
Идентификатор кодека             : S_TEXT/UTF8
Идентификатор кодека/Информация  : UTF-8 Plain Text
Язык                             : English
Свернуть
"Знаете ли Вы, что..."
  • Съёмки фильма проходили в Будапеште.
  • Фильм основан на одноименном романе ирландского писателя Джона Бойна (John Boyne). Во всем мире было продано более 5 миллионов копий романа.
Свернуть
Скриншоты

Изображение
Изображение
Изображение
Изображение
Изображение
Изображение
Изображение
Изображение
Изображение
Изображение
Свернуть
Оформлено by Евгений Лебедев


Последний раз редактировалось Биг 2013-10-11 20:20, всего редактировалось 2 раз(а).
Не в сети
Профиль  
 Добавлено: 2011-03-14 17:53 (спустя 1 месяц 1 день)
Стаж: 7 лет
Сообщений: 1
потрясный фильм
Не в сети
Профиль  
Начать новую темуОтветить на тему  [ Сообщений: 2 ] 
Вы не можете начинать темы
Вы не можете отвечать на сообщения
Вы не можете редактировать свои сообщения
Вы не можете удалять свои сообщения