Правила форума

Здесь находятся раздачи, на которых не было полного источника (сида) более месяца.
Вы можете вернуть релиз в соответствующий раздел, для этого напишите нам в специальной теме и встаньте на раздачу.
Новые релизы, повторяющие релизы в архиве, повторами не считаются.
Начать новую темуОтветить на тему  [ Сообщений: 3 ] 
Сообщения
 Добавлено: 2014-09-05 08:11
DVD Release Group
Аватара пользователя
Стаж: 7 лет 1 месяц
Сообщений: 3568
Спасибок: 247569
Лайков: 1020
Малефисента

Maleficent


Изображение


Год выпуска: 2014
Страна: США
Жанр: Фэнтези, семейный, мелодрама, приключения
Продолжительность: 01:37:50
Перевод: Профессиональный (полное дублирование) iTunes
Субтитры: Нет
Режиссер: Роберт Стромберг
В ролях: Анджелина Джоли, Эль Фаннинг, Шарлто Копли, Сэм Райли, Имелда Стонтон, Джуно Темпл, Лесли Мэнвилл, Брентон Туэйтс, Кеннет Крэнэм, Изобель Моллой
Описание: Юная волшебница Малефисента вела уединенную жизнь в зачарованном лесу, окруженная сказочными существами, но однажды все изменилось… В её мир вторглись люди, которые принесли с собой разрушение и хаос, и Малефисенте пришлось встать на защиту своих подданных, призвав на помощь могущественные тёмные силы. В пылу борьбы Малефисента наложила страшное заклятие на новорожденную дочь короля, прекрасную Аврору. Но, наблюдая за тем, как растет маленькая принцесса, Малефисента начинает сомневаться в правильности своего поступка — ведь, возможно, именно Аврора может вдохнуть новую жизнь в волшебное лесное царство.
Изображение
Качество: WEB-DL 720p
Формат: MKV
Видео кодек: H.264
Аудио кодек: AC3
Видео: 1280x532 23.98fps 3804kbps
Аудио:
Аудио Rus: 48kHz 6ch 384kbps
Аудио Eng: 48kHz 6ch 384kbps
"MediaInfo"
Format : Matroska
Format version : Version 4 / Version 2
File size : 3.19 GiB
Duration : 1h 37mn
Overall bit rate : 4 665 Kbps
Encoded date : UTC 2014-09-08 18:38:16
Writing application : mkvmerge v6.5.0 ('Isn't she lovely')
built on Oct 20 2013 12:50:05
Writing library : libebml v1.3.0 + libmatroska v1.4.1

Video
ID : 1
Format : AVC
Format/Info : Advanced Video Codec
Format profile : Main@L3.1
Format settings, CABAC : No
Format settings, ReFrames : 2 frames
Codec ID : V_MPEG4/ISO/AVC
Duration : 1h 37mn
Bit rate : 3 804 Kbps
Width : 1 280 pixels
Height : 532 pixels
Display aspect ratio : 2.40:1
Frame rate : 23.976 fps
Color space : YUV
Chroma subsampling : 4:2:0
Bit depth : 8 bits
Scan type : Progressive
Bits/(Pixel*Frame) : 0.233
Stream size : 2.60 GiB (82%)
Title : EVO
Language : English
Default : Yes
Forced : No
Color primaries : BT.709-5, BT.1361, IEC 61966-2-4, SMPTE RP177
Transfer characteristics : BT.709-5, BT.1361
Matrix coefficients : BT.709-5, BT.1361, IEC 61966-2-4 709, SMPTE RP177

Audio #1
ID : 2
Format : AC-3
Format/Info : Audio Coding 3
Mode extension : CM (complete main)
Codec ID : A_AC3
Duration : 1h 37mn
Bit rate mode : Constant
Bit rate : 384 Kbps
Channel(s) : 6 channels
Channel positions : Front: L C R, Side: L R, LFE
Sampling rate : 48.0 KHz
Bit depth : 16 bits
Compression mode : Lossy
Stream size : 269 MiB (8%)
Language : Russian
Default : Yes
Forced : No

Audio #2
ID : 3
Format : AC-3
Format/Info : Audio Coding 3
Mode extension : CM (complete main)
Codec ID : A_AC3
Duration : 1h 37mn
Bit rate mode : Constant
Bit rate : 384 Kbps
Channel(s) : 6 channels
Channel positions : Front: L C R, Side: L R, LFE
Sampling rate : 48.0 KHz
Bit depth : 16 bits
Compression mode : Lossy
Stream size : 269 MiB (8%)
Language : English
Default : No
Forced : No

Menu
00:00:00.000 : en:1
00:03:01.000 : en:2
00:08:11.000 : en:3
00:14:01.000 : en:4
00:19:11.000 : en:5
00:25:58.000 : en:6
00:33:10.000 : en:7
00:38:32.000 : en:8
00:43:22.000 : en:9
00:46:57.000 : en:10
00:51:13.000 : en:11
00:54:19.000 : en:12
00:58:38.000 : en:13
01:01:59.000 : en:14
01:05:11.000 : en:15
01:09:57.000 : en:16
01:15:41.000 : en:17
01:17:44.000 : en:18
01:25:44.000 : en:19
01:28:39.000 : en:20
Свернуть

"Скриншоты"
Изображение
Изображение
Изображение
Изображение
Изображение
Изображение
Свернуть


Последний раз редактировалось rastor 2014-09-09 06:40, всего редактировалось 1 раз.
Не в сети
Профиль  
 Добавлено: 2014-09-05 14:45 (спустя 6 часов)
Аватара пользователя
Стаж: 5 лет 2 месяца
Возраст: 34
Сообщений: 1280
Лайков: 20
спс :co_ol: :co_ol: :co_ol: :co_ol: :co_ol: :co_ol: :co_ol: :co_ol: :co_ol: :co_ol: :co_ol: :co_ol: :co_ol: :co_ol:
Не в сети
Профиль  
 Добавлено: 2014-09-05 14:50 (спустя 5 минут)
Аватара пользователя
Стаж: 8 лет 6 месяцев
Сообщений: 529
Очень быстро спс
Не в сети
Профиль  
Начать новую темуОтветить на тему  [ Сообщений: 3 ] 
Вы не можете начинать темы
Вы не можете отвечать на сообщения
Вы не можете редактировать свои сообщения
Вы не можете удалять свои сообщения