Правила форума

Здесь находятся раздачи, на которых не было полного источника (сида) более месяца.
Вы можете вернуть релиз в соответствующий раздел, для этого напишите нам в специальной теме и встаньте на раздачу.
Новые релизы, повторяющие релизы в архиве, повторами не считаются.
Начать новую темуОтветить на тему  [ Сообщений: 6 ] 
Сообщения
 Добавлено: 2014-09-12 18:01
DVD Release Group
Аватара пользователя
Стаж: 7 лет 1 месяц
Сообщений: 3550
Спасибок: 247106
Лайков: 1018
Малефисента

Maleficent


Изображение


Год выпуска: 2014
Страна: США
Жанр: Фэнтези, семейный, мелодрама, приключения
Продолжительность: 01:37:28
Перевод: Профессиональный (полное дублирование)
Субтитры: Русские, английские
Режиссер: Роберт Стромберг
В ролях: Анджелина Джоли, Эль Фаннинг, Шарлто Копли, Сэм Райли, Имелда Стонтон, Джуно Темпл, Лесли Мэнвилл, Брентон Туэйтс, Кеннет Крэнэм, Изобель Моллой
Описание: Юная волшебница Малефисента вела уединенную жизнь в зачарованном лесу, окруженная сказочными существами, но однажды все изменилось… В её мир вторглись люди, которые принесли с собой разрушение и хаос, и Малефисенте пришлось встать на защиту своих подданных, призвав на помощь могущественные тёмные силы. В пылу борьбы Малефисента наложила страшное заклятие на новорожденную дочь короля, прекрасную Аврору. Но, наблюдая за тем, как растет маленькая принцесса, Малефисента начинает сомневаться в правильности своего поступка — ведь, возможно, именно Аврора может вдохнуть новую жизнь в волшебное лесное царство.
Изображение
Качество: BDRip 1080p
Формат: MKV
Видео кодек: H.264
Аудио кодек: AC3, DTS
Видео: 1920x800 23.98fps 9725kbps
Аудио:
Аудио Rus: AC3 48kHz 6ch 640kbps
Аудио Eng: DTS 48kHz 6ch 1510kbps
"MediaInfo"
Формат : Matroska
Версия формата : Version 4 / Version 2
Размер файла : 8,08 Гбайт
Продолжительность : 1 ч. 37 м.
Общий поток : 11,9 Мбит/сек
Дата кодирования : UTC 2014-09-12 12:35:39
Программа кодирования : mkvmerge v7.1.0 ('Good Love') 64bit built on Jul 27 2014 13:06:55
Библиотека кодирования : libebml v1.3.0 + libmatroska v1.4.1
DURATION : 01:37:28.096000000
NUMBER_OF_FRAMES : 182753
NUMBER_OF_BYTES : 467847680
_STATISTICS_WRITING_APP : mkvmerge v7.1.0 ('Good Love') 64bit built on Jul 27 2014 13:06:55
_STATISTICS_WRITING_DATE_UTC : 2014-09-12 12:35:39
_STATISTICS_TAGS : BPS DURATION NUMBER_OF_FRAMES NUMBER_OF_BYTES

Видео
Идентификатор : 1
Формат : AVC
Формат/Информация : Advanced Video Codec
Профиль формата : High@L4.1
Параметр CABAC формата : Да
Параметр ReFrames формата : 5 кадров
Идентификатор кодека : V_MPEG4/ISO/AVC
Продолжительность : 1 ч. 37 м.
Битрейт : 9725 Кбит/сек
Ширина : 1920 пикселей
Высота : 800 пикселей
Соотношение сторон : 2,40:1
Режим частоты кадров : Постоянный
Частота кадров : 23,976 кадра/сек
Цветовое пространство : YUV
Субдискретизация насыщенности : 4:2:0
Битовая глубина : 8 бит
Тип развёртки : Прогрессивная
Бит/(Пиксели*Кадры) : 0.264
Размер потока : 6,46 Гбайт (80%)
Библиотека кодирования : x264 core 142 r2453 ea0ca51
Настройки программы : cabac=1 / ref=5 / deblock=1:0:0 / analyse=0x3:0x133 / me=umh / subme=7 / psy=1 / psy_rd=1.00:0.00 / mixed_ref=1 / me_range=16 / chroma_me=1 / trellis=1 / 8x8dct=1 / cqm=0 / deadzone=21,11 / fast_pskip=0 / chroma_qp_offset=-2 / threads=18 / lookahead_threads=3 / sliced_threads=0 / nr=0 / decimate=1 / interlaced=0 / bluray_compat=0 / constrained_intra=0 / bframes=3 / b_pyramid=2 / b_adapt=1 / b_bias=0 / direct=1 / weightb=1 / open_gop=0 / weightp=2 / keyint=250 / keyint_min=23 / scenecut=40 / intra_refresh=0 / rc_lookahead=40 / rc=2pass / mbtree=1 / bitrate=9725 / ratetol=1.0 / qcomp=0.60 / qpmin=0 / qpmax=69 / qpstep=4 / cplxblur=20.0 / qblur=0.5 / ip_ratio=1.40 / aq=1:1.00
Язык : English
Default : Да
Forced : Нет
DURATION : 01:37:28.060000000
NUMBER_OF_FRAMES : 140213
NUMBER_OF_BYTES : 7106286572
_STATISTICS_WRITING_APP : mkvmerge v7.1.0 ('Good Love') 64bit built on Jul 27 2014 13:06:55
_STATISTICS_WRITING_DATE_UTC : 2014-09-12 12:35:39
_STATISTICS_TAGS : BPS DURATION NUMBER_OF_FRAMES NUMBER_OF_BYTES

Аудио #1
Идентификатор : 2
Формат : AC-3
Формат/Информация : Audio Coding 3
Расширение режима : CM (complete main)
Параметр Endianness формата : Big
Идентификатор кодека : A_AC3
Продолжительность : 1 ч. 37 м.
Вид битрейта : Постоянный
Битрейт : 640 Кбит/сек
Каналы : 6 каналов
Расположение каналов : Front: L C R, Side: L R, LFE
Частота : 48,0 КГц
Битовая глубина : 16 бит
Метод сжатия : С потерями
Размер потока : 446 Мбайт (5%)
Язык : Russian
Default : Да
Forced : Нет

Аудио #2
Идентификатор : 3
Формат : DTS
Формат/Информация : Digital Theater Systems
Режим : 16
Параметр Endianness формата : Big
Идентификатор кодека : A_DTS
Продолжительность : 1 ч. 37 м.
Вид битрейта : Постоянный
Битрейт : 1509 Кбит/сек
Каналы : 6 каналов
Расположение каналов : Front: L C R, Side: L R, LFE
Частота : 48,0 КГц
Битовая глубина : 24 бит
Метод сжатия : С потерями
Размер потока : 1,03 Гбайт (13%)
Заголовок : DTS
Язык : English
Default : Нет
Forced : Нет

Текст #1
Идентификатор : 4
Формат : UTF-8
Идентификатор кодека : S_TEXT/UTF8
Идентификатор кодека/Информация : UTF-8 Plain Text
Заголовок : Full
Язык : Russian
Default : Нет
Forced : Нет

Текст #2
Идентификатор : 5
Формат : UTF-8
Идентификатор кодека : S_TEXT/UTF8
Идентификатор кодека/Информация : UTF-8 Plain Text
Заголовок : Full
Язык : English
Default : Нет
Forced : Нет

Меню
00:00:00.000 : en:00:00:00.000
00:03:00.597 : en:00:03:00.597
00:08:10.949 : en:00:08:10.949
00:14:00.757 : en:00:14:00.757
00:19:10.608 : en:00:19:10.608
00:25:59.057 : en:00:25:59.057
00:33:09.738 : en:00:33:09.738
00:38:30.808 : en:00:38:30.808
00:43:21.140 : en:00:43:21.140
00:46:56.105 : en:00:46:56.105
00:51:11.944 : en:00:51:11.944
00:54:18.797 : en:00:54:18.797
00:58:37.723 : en:00:58:37.723
01:01:58.048 : en:01:01:58.048
01:05:09.989 : en:01:05:09.989
01:09:56.776 : en:01:09:56.776
01:15:40.619 : en:01:15:40.619
01:17:43.659 : en:01:17:43.659
01:25:44.931 : en:01:25:44.931
01:28:38.647 : en:01:28:38.647
Свернуть

"Скриншоты"
Изображение
Изображение
Изображение
Изображение
Свернуть
 sashannov и bel66 нравится это.
В сети
Профиль  
 Добавлено: 2014-09-12 23:22 (спустя 5 часов)
Аватара пользователя
Стаж: 3 года 6 месяцев
Сообщений: 175
Спасибок: 4258
Лайков: 29
Смотрите фильмы в качестве! Спасибо за релиз!
Не в сети
Профиль  
 Добавлено: 2014-09-13 19:12 (спустя 19 часов)
Аватара пользователя
Стаж: 4 года 3 месяца
Сообщений: 12
Ура, спасибо!!
Не в сети
Профиль  
 Добавлено: 2014-09-14 16:48 (спустя 21 час)
Аватара пользователя
Стаж: 8 лет 9 месяцев
Сообщений: 1170
Спасибок: 1294
Лайков: 7
Фифтисента :-D
Не в сети
Профиль  
 Добавлено: 2014-09-14 17:45 (спустя 57 минут)
Стаж: 8 лет 6 месяцев
Сообщений: 12
Спасибок: 91
Наконец то в нормальном качестве :co_ol:
Не в сети
Профиль  
 Добавлено: 2014-09-16 13:18 (спустя 1 день 19 часов)
Аватара пользователя
Стаж: 9 лет 1 месяц
Сообщений: 7986
Спасибок: 122215
Лайков: 1191
Сценрип поглощен в пользу качественного рипа
http://nnportal.org/tracker/zarubejnoe- ... l#p6039530
В сети
Профиль  
Начать новую темуОтветить на тему  [ Сообщений: 6 ] 
Вы не можете начинать темы
Вы не можете отвечать на сообщения
Вы не можете редактировать свои сообщения
Вы не можете удалять свои сообщения