Правила форума

Здесь находятся раздачи, на которых не было полного источника (сида) более месяца.
Вы можете вернуть релиз в соответствующий раздел, для этого напишите нам в специальной теме и встаньте на раздачу.
Новые релизы, повторяющие релизы в архиве, повторами не считаются.
Начать новую темуОтветить на тему  [ 1 сообщение ] 
Сообщения
 Добавлено: 2011-10-21 20:56
Модератор релиз-группы
Аватара пользователя
Стаж: 9 лет 1 месяц
Возраст: 97
Сообщений: 11659
Спасибок: 6532
Лайков: 269
Малыш / The Kid

Изображение


Год выпуска: 2000
Страна: США
Жанр: комедия, фантастика
Продолжительность: 01:39:41
Перевод: Профессиональный двухголосый [НТВ+ (Елена Борзунова, Денис Некрасов)]

Режиссер: Джон Тёртелтауб / Jon Turteltaub

В ролях: Брюс Уиллис, Спенсер Бреслин, Эмили Мортимер, Лили Томлин , Чи МакБрайд, Джин Смарт, Дэна Айви, Дэниэл Фон Барген, Стэнли Андерсон, Сьюзан Дэлиэн

Описание: Расс Дурис, консультант по имиджу, дожил до 40 лет. Этот сухой, черствый, рациональный, умный, саркастичный прагматик собственному отцу не хочет выделить больше одной минуты. Для своей девушки Эми не может найти добрых слов, а работающей на него опытной секретарше нередко доставляет боль. И вот он встречает... самого себя в возрасте 8 лет. Мальчишка каким-то волшебным образом оказывается в его доме. Убедившись, что это не галлюцинация, он пытается избавиться от малыша. Расти многим недоволен в себе, ставшим взрослым: он не женат, не стал летчиком, у него нет даже собаки. Что будет дальше?..
Изображение
Качество: HDTV
Формат: mkv
Видео кодек: H.264
Аудио кодек: AC3
Видео: MPEG-4 AVC 1920 x 1080 (1.765) ~5751 kbps, 50 fps
Аудио: AC3 at 448 Кбит/сек 6 каналы, 48 КГц
скриншоты
Изображение

Изображение

Изображение

Изображение

Изображение
Свернуть
Mi
Format : Matroska
Format version : Version 2
File size : 4.50 GiB
Duration : 1h 39mn
Overall bit rate : 6 456 Kbps
Encoded date : UTC 2011-10-21 17:45:59
Writing application : mkvmerge v5.0.1 ('Es ist Sommer') built on Oct 9 2011 11:55:43
Writing library : libebml v1.2.2 + libmatroska v1.3.0

Video
ID : 1
Format : AVC
Format/Info : Advanced Video Codec
Format profile : Main@L4.0
Format settings, CABAC : Yes
Format settings, ReFrames : 4 frames
Codec ID : V_MPEG4/ISO/AVC
Duration : 1h 39mn
Bit rate mode : Variable
Bit rate : 5 879 Kbps
Maximum bit rate : 40.0 Mbps
Width : 1 920 pixels
Height : 1 080 pixels
Display aspect ratio : 16:9
Frame rate : 50.000 fps
Original frame rate : 25.000 fps
Color space : YUV
Chroma subsampling : 4:2:0
Bit depth : 8 bits
Scan type : Interlaced
Scan order : Top Field First
Bits/(Pixel*Frame) : 0.057
Stream size : 4.10 GiB (91%)
Color primaries : BT.709-5, BT.1361, IEC 61966-2-4, SMPTE RP177
Transfer characteristics : BT.709-5, BT.1361
Matrix coefficients : BT.709-5, BT.1361, IEC 61966-2-4 709, SMPTE RP177

Audio
ID : 2
Format : AC-3
Format/Info : Audio Coding 3
Mode extension : CM (complete main)
Codec ID : A_AC3
Duration : 1h 39mn
Bit rate mode : Constant
Bit rate : 448 Kbps
Channel(s) : 6 channels
Channel positions : Front: L C R, Side: L R, LFE
Sampling rate : 48.0 KHz
Bit depth : 16 bits
Compression mode : Lossy
Delay relative to video : -100ms
Stream size : 320 MiB (7%)

Свернуть
_________________
Изображение
Не в сети
Профиль  
Начать новую темуОтветить на тему  [ 1 сообщение ] 
Вы не можете начинать темы
Вы не можете отвечать на сообщения
Вы не можете редактировать свои сообщения
Вы не можете удалять свои сообщения