Правила форума

Здесь находятся раздачи, на которых не было полного источника (сида) более месяца.
Вы можете вернуть релиз в соответствующий раздел, для этого напишите нам в специальной теме и встаньте на раздачу.
Новые релизы, повторяющие релизы в архиве, повторами не считаются.
Начать новую темуОтветить на тему  [ Сообщений: 10 ] 
Сообщения
 Добавлено: 2013-04-27 12:26
Аватара пользователя
Стаж: 7 лет 2 месяца
Сообщений: 7167
Спасибок: 82010
Лайков: 2438
Мама / Mama

Изображение


Год выпуска: 2013
Страна: Испания, Канада
Слоган: «Никогда не оставит тебя»
Жанр: ужасы, фэнтези, триллер
Продолжительность: 01:40:06
Перевод: Любительский (одноголосый закадровый) + Оригинальная звуковая дорожка

Режиссёр: Андрес Мускетти
В ролях: Джессика Честейн, Николай Костер-Валдау, Меган Чарпентье, Дэниэл Кэш, Джейн Моффат, Хавьер Боте, Джейден Грег, Сидни Кросс
Описание: В заброшенной хижине в чаще леса найдены две девочки. Таинственным образом они прожили в пустом доме пять лет. Найденных сирот забирают единственные родственники, молодая супружеская пара. Но девочки не одиноки, у них есть мама, и она приходит из тьмы…


Качество: BDRip 720p
Формат: MKV
Видео кодек: H264 (AVC)
Аудио кодек: AC3 (Dolby Digital), DTS
Видео: 1 280x696, 23.976 fps, 4 737 Kbps
Аудио #1: 48.0 KHz, 1 ch, 128 Kbps [Любительский (одноголосый закадровый)]
Аудио #2: 48.0 KHz, 6 ch, 1509 Kbps [Оригинальная звуковая дорожка]
Субтитры: Английский
Изображение
Скриншоты
Изображение

Изображение

Изображение
Свернуть
Знаете ли Вы, что...
Когда Аннабель слышит, как девочки играют, она идет в их комнату, чтобы сказать, что уже поздно и пора ложиться спать, но на улице еще светло. В фильме также есть еще около 3-х сцен, в которых по сюжету должна быть ночь, а за окнами на улице день.
Когда Лили уговаривает Викторию пойти к Маме, положение ее одеяла меняется после смены кадра.
У врача ноутбук Sony Vaio (с операционной системой Windows), однако, когда Аннебель берет его, чтобы увидеть результаты исследований, то там оказывается Mac OS.
Когда маленькая Виктория впервые заходит в хижину, она шагает по снегу, который прилипает к ее ногам, и можно заметить, что на самом деле это белый ковер.
Когда Аннабель копается в компьютере доктора Дрейфусса, в названии папки с его исследованиями есть опечатка — «Reasearch» (а правильно «Research»).
Лукас арендует автомобиль в конторе под названием «Enterprise», но у машины не видно штрих-кода на окне. Все машины этой компании обладают штрих-кодами для ускорения процедуры регистрации.
Свернуть
MI
General
Unique ID : 212617193206627966305680617409108064349 (0x9FF494F7F9FBF4A3A1440B9632B9385D)
Complete name : Мама.2013.mkv
Format : Matroska
Format version : Version 2
File size : 4.46 GiB
Duration : 1h 40mn
Overall bit rate : 6 377 Kbps
Movie name : Mama.2013.L1.BDRip.
Encoded date : UTC 2013-04-25 09:31:42
Writing application : mkvmerge v2.9.9 ('Tutu') built on Nov 25 2009 21:13:32
Writing library : libebml v0.7.9 + libmatroska v0.8.1

Video
ID : 1
Format : AVC
Format/Info : Advanced Video Codec
Format profile : High@L4.1
Format settings, CABAC : Yes
Format settings, ReFrames : 5 frames
Codec ID : V_MPEG4/ISO/AVC
Duration : 1h 40mn
Bit rate : 4 737 Kbps
Width : 1 280 pixels
Height : 696 pixels
Display aspect ratio : 1.85:1
Frame rate : 23.976 fps
Color space : YUV
Chroma subsampling : 4:2:0
Bit depth : 8 bits
Scan type : Progressive
Bits/(Pixel*Frame) : 0.222
Stream size : 3.22 GiB (72%)
Title : Mama.2013.L1.BDRip.720p.
Writing library : x264 core 130 r2273 b3065e6
Encoding settings : cabac=1 / ref=5 / deblock=1:0:0 / analyse=0x3:0x133 / me=umh / subme=7 / psy=1 / psy_rd=1.00:0.00 / mixed_ref=1 / me_range=16 / chroma_me=1 / trellis=1 / 8x8dct=1 / cqm=0 / deadzone=21,11 / fast_pskip=0 / chroma_qp_offset=-2 / threads=12 / lookahead_threads=2 / sliced_threads=0 / nr=0 / decimate=1 / interlaced=0 / bluray_compat=0 / constrained_intra=0 / bframes=3 / b_pyramid=2 / b_adapt=1 / b_bias=0 / direct=1 / weightb=1 / open_gop=0 / weightp=2 / keyint=250 / keyint_min=23 / scenecut=40 / intra_refresh=0 / rc_lookahead=40 / rc=2pass / mbtree=1 / bitrate=4737 / ratetol=1.0 / qcomp=0.60 / qpmin=0 / qpmax=69 / qpstep=4 / cplxblur=20.0 / qblur=0.5 / ip_ratio=1.40 / aq=1:1.00
Language : English
Default : No
Forced : No

Audio #1
ID : 2
Format : AC-3
Format/Info : Audio Coding 3
Mode extension : CM (complete main)
Format settings, Endianness : Big
Codec ID : A_AC3
Duration : 1h 40mn
Bit rate mode : Constant
Bit rate : 128 Kbps
Channel(s) : 2 channels
Channel positions : Front: L R
Sampling rate : 48.0 KHz
Bit depth : 16 bits
Compression mode : Lossy
Stream size : 91.7 MiB (2%)
Title : AC3.128.Kbps (2ch) Russian
Language : Russian
Default : No
Forced : No

Audio #2
ID : 3
Format : DTS
Format/Info : Digital Theater Systems
Codec ID : A_DTS
Duration : 1h 40mn
Bit rate mode : Constant
Bit rate : 1 510 Kbps
Channel(s) : 6 channels
Channel positions : Front: L C R, Side: L R, LFE
Sampling rate : 48.0 KHz
Bit depth : 24 bits
Compression mode : Lossy
Delay relative to video : 11ms
Stream size : 1.06 GiB (24%)
Title : DTS.1510.Kbps (6ch) English
Language : English
Default : No
Forced : No

Text
ID : 4
Format : UTF-8
Codec ID : S_TEXT/UTF8
Codec ID/Info : UTF-8 Plain Text
Title : English (Full)
Language : English
Default : No
Forced : No

Menu
00:00:00.000 : en:00:00:00.000
00:04:57.881 : en:00:04:57.881
00:11:47.165 : en:00:11:47.165
00:17:33.761 : en:00:17:33.761
00:20:51.417 : en:00:20:51.417
00:26:08.734 : en:00:26:08.734
00:32:02.796 : en:00:32:02.796
00:36:53.169 : en:00:36:53.169
00:40:12.535 : en:00:40:12.535
00:44:43.222 : en:00:44:43.222
00:47:35.186 : en:00:47:35.186
00:53:04.390 : en:00:53:04.390
00:58:55.282 : en:00:58:55.282
01:04:38.166 : en:01:04:38.166
01:11:00.339 : en:01:11:00.339
01:16:49.146 : en:01:16:49.146
01:22:00.999 : en:01:22:00.999
01:25:14.526 : en:01:25:14.526
01:29:15.058 : en:01:29:15.058
01:35:29.349 : en:01:35:29.349


Свернуть
 Пронин1987, MiSkam и rotametr нравится это.
Не в сети
Профиль  
 Добавлено: 2013-04-27 12:32 (спустя 5 минут)
Top-seeder
Аватара пользователя
Стаж: 5 лет 8 месяцев
Возраст: 21
Сообщений: 48
Спасибок: 317
Ланнистеры всегда платят :-D
_________________
Не тот человек умны который много думает, а умный тот который понимает о чём думает)
Не в сети
Профиль  
 Добавлено: 2013-04-27 12:34 (спустя 2 минуты)
Аватара пользователя
Стаж: 7 лет 2 месяца
Сообщений: 7167
Спасибок: 82010
Лайков: 2438
RuslankE313

Точно, а я чёт его без сабелки не узнал :)
Не в сети
Профиль  
 Добавлено: 2013-04-27 13:10 (спустя 36 минут)
Аватара пользователя
Стаж: 4 года 10 месяцев
Сообщений: 5
Кино-то как? :)
Не в сети
Профиль  
 Добавлено: 2013-04-27 13:12 (спустя 2 минуты)
Аватара пользователя
Стаж: 8 лет 11 месяцев
Сообщений: 2004
Спасибок: 2290
Krak0zyabra
ничем не выдающееся кино. раз можно поглядеть
Не в сети
Профиль  
 Добавлено: 2013-04-27 13:14 (спустя 1 минута)
Аватара пользователя
Стаж: 7 лет 2 месяца
Сообщений: 7167
Спасибок: 82010
Лайков: 2438
Мне понравился.
Не в сети
Профиль  
 Добавлено: 2013-04-27 15:28 (спустя 2 часа 13 минут)
NNTT.ORG Counter-Strike Sourse Player
Аватара пользователя
Стаж: 9 лет
Сообщений: 135
когда дубляж то будет ?
Не в сети
Профиль  
 Добавлено: 2013-04-30 21:37 (спустя 3 дня)
Стаж: 7 лет 1 месяц
Сообщений: 15
:co_ol: класный фильм
Не в сети
Профиль  
 Добавлено: 2013-05-10 17:44 (спустя 9 дней)
Аватара пользователя
Стаж: 4 года 3 месяца
Сообщений: 11
звука нет почему то((((
Не в сети
Профиль  
 Добавлено: 2013-05-30 20:31 (спустя 20 дней)
Модератор
Аватара пользователя
Стаж: 8 лет 11 месяцев
Сообщений: 516
Спасибок: 26888
Лайков: 1
viewtopic.php?f=1750&t=509122
Не в сети
Профиль  
Начать новую темуОтветить на тему  [ Сообщений: 10 ] 
Вы не можете начинать темы
Вы не можете отвечать на сообщения
Вы не можете редактировать свои сообщения
Вы не можете удалять свои сообщения