Правила форума

Здесь находятся раздачи, на которых не было полного источника (сида) более месяца.
Вы можете вернуть релиз в соответствующий раздел, для этого напишите нам в специальной теме и встаньте на раздачу.
Новые релизы, повторяющие релизы в архиве, повторами не считаются.
Начать новую темуОтветить на тему  [ Сообщений: 6 ] 
Сообщения
 Добавлено: 2011-03-25 18:26
Модератор
Аватара пользователя
Стаж: 8 лет 1 месяц
Возраст: 20
Сообщений: 32130
Спасибок: 98568
Лайков: 80
Механик / The Mechanic
«Someone has to fix the problems.»

Изображение
Год выпуска: 2010
Страна: Изображение США
Жанр: боевик, триллер, драма
Продолжительность: 01:28:31
Перевод: Профессиональный (полное дублирование) [лицензия]

Режиссер: Саймон Уэст / Simon West
Сценарий: Ричард Уэнк / Richard Wenk, Льюис Джон Карлино / Lewis John Carlino
Продюсер: Авэ Лернер / Avi Lerner, Джон Томпсон / John Thompson, Дэвид Уинклер / David Winkler, Ирвин Уинклер / Irwin Winkler, Роберт Чартофф / Robert Chartoff
Оператор: Эрик Шмидт / Eric Schmidt
Композитор: Марк Айшем / Mark Isham

В ролях: Джейсон Стэтхэм (Arthur Bishop), Бен Фостер (Steve McKenna), Тони Голдуин (Dean), Дональд Сазерленд (Harry McKenna), Джефф Чейз (Burke), Мини Анден (Sarah), Джеймс Логан (Jorge Lara), Эдди Дж. Фернандез (Lara's Guard), Джошуа Бриджуотер (Car Jacker), Джон МакКоннелл (Vaughn), Криста Кэмпбелл (Kelly), Джоэль Дэвис (Husband)
Дублёры: Владимир Зайцев (Arthur Bishop), Александр Гаврилин (Steve McKenna), Василий Дахненко (Dean), Петр Тобилевич (Harry McKenna), Татьяна Шитова (Sarah)
Описание: Артур Бишоп - «Механик», высокопрофессиональный безукоризненный киллер, который всегда работает по правилам - «чисто» и без следов. Такая работа требует полного самообладания и беспристрастности, и в своём деле ему нет равных. Бишоп всегда работал один, но ему пришлось стать наставником молодого и отчаянного Стива. Методичный профессионал и импульсивный ученик теперь на пару «устраняют проблемы», но рано или поздно они сойдутся в смертельной схватке...

Раздача: Изображение

Изображение
Доп. информация
Бюджет: $40 000 000
Сборы в мире: $38 582 693
Сборы в США: $26 882 693
Сборы в России: $7 974 210
Мировая премьера: 21 января 2011
Изображение Релиз на DVD: 25 февраля 2011, «Монолит»
Изображение Релиз на Blu-ray: 4 марта 2011, «Монолит»
MediaInfo
General
ID : 0 (0x0)
Complete name : E:\торрент\Mexanik.2011.AVC.DTSHD.BD\BDMV\STREAM\00005.m2ts
Format : BDAV
Format/Info : Blu-ray Video
File size : 21.6 GiB
Duration : 1h 32mn
Overall bit rate : 33.6 Mbps
Maximum Overall bit rate : 48.0 Mbps

Video
ID : 4113 (0x1011)
Menu ID : 1 (0x1)
Format : AVC
Format/Info : Advanced Video Codec
Format profile : High@L4.1
Format settings, CABAC : Yes
Format settings, ReFrames : 4 frames
Codec ID : 27
Duration : 1h 32mn
Bit rate mode : Constant
Bit rate : 29.3 Mbps
Width : 1 920 pixels
Height : 1 080 pixels
Display aspect ratio : 16:9
Frame rate : 24.000 fps
Standard : NTSC
Color space : YUV
Chroma subsampling : 4:2:0
Bit depth : 8 bits
Scan type : Progressive
Bits/(Pixel*Frame) : 0.589
Stream size : 19.7 GiB (91%)
Color primaries : BT.709-5, BT.1361, IEC 61966-2-4, SMPTE RP177
Transfer characteristics : BT.709-5, BT.1361
Matrix coefficients : BT.709-5, BT.1361, IEC 61966-2-4 709, SMPTE RP177

Audio #1
ID : 4352 (0x1100)
Menu ID : 1 (0x1)
Format : DTS
Format/Info : Digital Theater Systems
Format profile : MA / Core
Muxing mode : Stream extension
Codec ID : 134
Duration : 1h 32mn
Bit rate mode : Variable
Bit rate : 1 203 Kbps / 1 152 Kbps
Channel(s) : 6 channels
Channel positions : Front: L C R, Side: L R, LFE
Sampling rate : 48.0 KHz
Bit depth : 16 bits
Compression mode : Lossless / Lossy

Audio #2
ID : 4353 (0x1101)
Menu ID : 1 (0x1)
Format : AC-3
Format/Info : Audio Coding 3
Mode extension : CM (complete main)
Codec ID : 129
Duration : 1h 32mn
Bit rate mode : Constant
Bit rate : 448 Kbps
Channel(s) : 6 channels
Channel positions : Front: L C R, Side: L R, LFE
Sampling rate : 48.0 KHz
Bit depth : 16 bits
Compression mode : Lossy
Stream size : 295 MiB (1%)
Свернуть
BDInfo Report
DISC INFO:
Disc Title: Mexanik.2011.AVC.DTSHD.BD
Disc Size: 23 470 904 680 bytes
Protection: AACS
BD-Java: No
BDInfo: 0.5.6

PLAYLIST REPORT:

Name: 00002.MPLS
Length: 1:32:12 (h:m:s)
Size: 23 207 344 128 bytes
Total Bitrate: 33,56 Mbps

VIDEO:

Codec Bitrate Description
----- ------- -----------
MPEG-4 AVC Video 29300 kbps 1080p / 24 fps / 16:9 / High Profile 4.1

AUDIO:

Codec Language Bitrate Description
----- -------- ------- -----------
DTS-HD Master Audio Russian 2158 kbps 5.1 / 48 kHz / 2158 kbps / 16-bit (DTS Core: 5.1 / 48 kHz / 1152 kbps / 16-bit)
Dolby Digital Audio Russian 448 kbps 5.1 / 48 kHz / 448 kbps
Свернуть
Свернуть

MPAA: Изображение
Качество: Blu-Ray 1080p R5
Формат видео: m2ts [BDMV]
Видеокодек: MPEG-4 AVC/H.264
Битрейт видео: ~29300 kbps
Размер кадра: 1920x1080
Аудио #1: Изображение Русский DTS-HD MA 5.1 (48 kHz / 2158 kbps / 16-bit) Дубляж
Аудио #2: Изображение Русский Dolby Digital AC3 5.1(448 kbps) Дубляж
Знаете ли Вы, что...
  • В кадрах, записанных камерами слежения на автозаправочной станции (в финале фильма), фигурирует дата 28-е января 2011-го года.
Свернуть
Скриншоты
Изображение

Изображение

Изображение

Изображение
Свернуть
Не в сети
Профиль  
 Добавлено: 2011-03-25 21:52 (спустя 3 часа)
Аватара пользователя
Стаж: 7 лет
Сообщений: 183
Костян236
А Blu-Ray 1080p rip не будет?
_________________
Юзербары
Изображение
Изображение
Изображение
Изображение
Свернуть
Не в сети
Профиль  
 Добавлено: 2011-03-25 22:08 (спустя 15 минут)
Модератор
Аватара пользователя
Стаж: 8 лет 1 месяц
Возраст: 20
Сообщений: 32130
Спасибок: 98568
Лайков: 80
extremesarova
Будет :)
Не в сети
Профиль  
 Добавлено: 2011-03-28 10:49 (спустя 2 дня 12 часов)
Аватара пользователя
Стаж: 7 лет 2 месяца
Возраст: 24
Сообщений: 6
а через какой проигрыватель и как включать?

P.S.
Простите за глупые вопросы :-[
Не в сети
Профиль  
 Добавлено: 2011-04-07 14:49 (спустя 10 дней)
Стаж: 7 лет 4 месяца
Сообщений: 15
Фильм не очень.
Не в сети
Профиль  
 Добавлено: 2011-04-07 16:42 (спустя 1 час 53 минуты)
Модератор
Аватара пользователя
Стаж: 8 лет 1 месяц
Возраст: 20
Сообщений: 32130
Спасибок: 98568
Лайков: 80
Да, снят он отвратительно :(
Не в сети
Профиль  
Начать новую темуОтветить на тему  [ Сообщений: 6 ] 
Вы не можете начинать темы
Вы не можете отвечать на сообщения
Вы не можете редактировать свои сообщения
Вы не можете удалять свои сообщения