Правила форума

Здесь находятся раздачи, на которых не было полного источника (сида) более месяца.
Вы можете вернуть релиз в соответствующий раздел, для этого напишите нам в специальной теме и встаньте на раздачу.
Новые релизы, повторяющие релизы в архиве, повторами не считаются.
Начать новую темуОтветить на тему  [ Сообщений: 9 ] 
Сообщения
 Добавлено: 2013-09-04 13:05
DVD Release Group
Аватара пользователя
Стаж: 7 лет 1 месяц
Сообщений: 3545
Спасибок: 247026
Лайков: 1018
Мерзлая земля

The Frozen Ground


Изображение


Год выпуска: 2013
Страна: Франция, Бельгия
Жанр: Триллер, криминал
Продолжительность: 01:45:33
Перевод: Профессиональный (полное дублирование)
Режиссер: Скотт Уокер
В ролях: Николас Кейдж, Джон Кьюсак, Ванесса Энн Хадженс, Кэтрин ЛаНаса, Дин Норрис, Джоди Лин О’Кифи, Рада Митчелл, Фифти Сент, Мэтт Джералд, Джина Мантенья
Описание: Все были уверены, что Роберт Хансен — приличный семьянин, владелец пекарни и славный охотник. Никто не подозревал, что на самом деле он — безжалостный маньяк, который похитил и убил более двадцати женщин. И только 17-летней Синди Полсон удалось сбежать от убийцы. Она наводит на след маньяка полицейского, который начинает опасное расследование. Ему никто не верит: Хансен — слишком приличный человек для такого обвинения… Но упорный коп знает свое дело и должен дойти до конца…
Изображение
Качество: WEB-DL 1080p
Формат: MKV
Видео кодек: H.264
Аудио кодек: AC3
Видео: 1912x792 23.98fps 4458kbps
Аудио:
Audio Rus: 48kHz 6ch 384kbps
Audio Eng: 48kHz 6ch 384kbps
"MediaInfo"
Формат : Matroska
Версия формата : Version 2
Размер файла : 3,85 Гбайт
Продолжительность : 1 ч. 45 м.
Общий поток : 5225 Кбит/сек
Дата кодирования : UTC 2013-09-02 20:42:30
Программа кодирования : mkvmerge v5.7.0 ('The Whirlwind') built on Jul 8 2012 20:08:51
Библиотека кодирования : libebml v1.2.3 + libmatroska v1.3.0

Видео
Идентификатор : 1
Формат : AVC
Формат/Информация : Advanced Video Codec
Профиль формата : High@L4.1
Параметр CABAC формата : Да
Параметр ReFrames формата : 4 кадра
Режим смешивания : Header stripping
Идентификатор кодека : V_MPEG4/ISO/AVC
Продолжительность : 1 ч. 45 м.
Битрейт : 4458 Кбит/сек
Ширина : 1912 пикселей
Высота : 792 пикселя
Соотношение сторон : 2,40:1
Частота кадров : 23,976 кадра/сек
Цветовое пространство : YUV
Субдискретизация насыщенности : 4:2:0
Битовая глубина : 8 бит
Тип развёртки : Прогрессивная
Бит/(Пиксели*Кадры) : 0.123
Размер потока : 3,21 Гбайт (83%)
Библиотека кодирования : x264 core 133 r2334 a3ac64b
Настройки программы : cabac=1 / ref=2 / deblock=1:0:0 / analyse=0x3:0x113 / me=hex / subme=7 / psy=1 / psy_rd=1.00:0.15 / mixed_ref=0 / me_range=16 / chroma_me=1 / trellis=1 / 8x8dct=1 / cqm=0 / deadzone=21,11 / fast_pskip=1 / chroma_qp_offset=-3 / threads=12 / lookahead_threads=2 / sliced_threads=0 / nr=0 / decimate=1 / interlaced=0 / bluray_compat=0 / constrained_intra=0 / bframes=3 / b_pyramid=2 / b_adapt=1 / b_bias=0 / direct=1 / weightb=1 / open_gop=0 / weightp=1 / keyint=240 / keyint_min=23 / scenecut=40 / intra_refresh=0 / rc_lookahead=20 / rc=2pass / mbtree=1 / bitrate=4458 / ratetol=1.0 / qcomp=0.60 / qpmin=10 / qpmax=51 / qpstep=4 / cplxblur=20.0 / qblur=0.5 / ip_ratio=1.40 / aq=1:1.00
Default : Да
Forced : Нет

Аудио #1
Идентификатор : 2
Формат : AC-3
Формат/Информация : Audio Coding 3
Расширение режима : CM (complete main)
Режим смешивания : Header stripping
Идентификатор кодека : A_AC3
Продолжительность : 1 ч. 45 м.
Вид битрейта : Постоянный
Битрейт : 384 Кбит/сек
Каналы : 6 каналов
Расположение каналов : Front: L C R, Side: L R, LFE
Частота : 48,0 КГц
Битовая глубина : 16 бит
Метод сжатия : С потерями
Размер потока : 290 Мбайт (7%)
Default : Нет
Forced : Нет

Аудио #2
Идентификатор : 3
Формат : AC-3
Формат/Информация : Audio Coding 3
Расширение режима : CM (complete main)
Режим смешивания : Header stripping
Идентификатор кодека : A_AC3
Продолжительность : 1 ч. 45 м.
Вид битрейта : Постоянный
Битрейт : 384 Кбит/сек
Каналы : 6 каналов
Расположение каналов : Front: L C R, Side: L R, LFE
Частота : 48,0 КГц
Битовая глубина : 16 бит
Метод сжатия : С потерями
Размер потока : 290 Мбайт (7%)
Язык : English
Default : Да
Forced : Нет
Свернуть

"Скриншоты"
Изображение
Изображение
Изображение
Свернуть
В сети
Профиль  
 Добавлено: 2013-09-04 18:51 (спустя 5 часов)
Аватара пользователя
Стаж: 8 лет 2 месяца
Сообщений: 8
Спасибок: 68
А Кейдж маньяка играет или полицейского?
От этого зависит - стоит смотреть или нет
Не в сети
Профиль  
 Добавлено: 2013-09-04 20:37 (спустя 1 час 46 минут)
Аватара пользователя
Стаж: 8 лет
Сообщений: 1390
Спасибок: 39
Лайков: 64
качаю...надеюсь дубляж действительно проф, не как у анаболиков и стартрека...сэмплы опять не в ходу, да :du_ma_et:
Не в сети
Профиль  
 Добавлено: 2013-09-04 21:05 (спустя 27 минут)
DVD Release Group
Аватара пользователя
Стаж: 7 лет 1 месяц
Сообщений: 3545
Спасибок: 247026
Лайков: 1018
Sample:
http://multi-up.com/900322
В сети
Профиль  
 Добавлено: 2013-09-04 21:37 (спустя 32 минуты)
Аватара пользователя
Стаж: 8 лет
Сообщений: 1390
Спасибок: 39
Лайков: 64
да скачал уже...дубляж любительский...дожили :(
Не в сети
Профиль  
 Добавлено: 2013-09-04 23:00 (спустя 1 час 22 минуты)
Top-seeder
Аватара пользователя
Стаж: 8 лет 1 месяц
Возраст: 26
Сообщений: 17415
Спасибок: 316
Лайков: 45

AlKud:

А Кейдж маньяка играет или полицейского?
полицейского.
_________________
ИзображениеИзображение Изображение Взял смайл - ставь ©!
Cкрытый текст
Изображение
Свернуть
Не в сети
Профиль  
 Добавлено: 2013-09-06 12:19 (спустя 1 день 13 часов)
Стаж: 3 года 6 месяцев
Сообщений: 1
А у меня без перевода :ne_znayu:
Не в сети
Профиль  
 Добавлено: 2013-09-06 13:13 (спустя 53 минуты)
Стаж: 7 лет 8 месяцев
Возраст: 20
Сообщений: 23
Спасибок: 317
дорожку смени и будет тебе озвучка :-D
Не в сети
Профиль  
 Добавлено: 2013-09-06 17:03 (спустя 3 часа)
Аватара пользователя
Стаж: 9 лет 1 месяц
Возраст: 31
Сообщений: 96
Спасибок: 31
У меня тоже только 1 дорожка английская.
Не в сети
Профиль  
Начать новую темуОтветить на тему  [ Сообщений: 9 ] 
Вы не можете начинать темы
Вы не можете отвечать на сообщения
Вы не можете редактировать свои сообщения
Вы не можете удалять свои сообщения